Movies - Other

{

  • Download 5x Faster
  • Download torrent
  • Direct Download
  • Rate this torrent +  |  -
{

Download FREE And Anonymously


Torrent info

Name:{

Total Size: 731.73 MB

Magnet: Magnet Link

Seeds: 0

Leechers: 0

Stream: Watch Full Movie @ Movie4u

Last Updated: 2011-09-27 02:35:03 (Update Now)

Torrent added: 2011-09-27 03:35:03

Alternatives:{ Torrents



CyberGhost VPN For Torrents

Torrent Files List


Downloaded from www.scenetime.com.txt (Size: 731.73 MB) (Files: 59)

 Downloaded from www.scenetime.com.txt

0.19 KB

 exvid-los.jpg

6.78 KB

 exvid-los.nfo

7.72 KB

 exvid-los.r00

14.31 MB

 exvid-los.r01

14.31 MB

 exvid-los.r02

14.31 MB

 exvid-los.r03

14.31 MB

 exvid-los.r04

14.31 MB

 exvid-los.r05

14.31 MB

 exvid-los.r06

14.31 MB

 exvid-los.r07

14.31 MB

 exvid-los.r08

14.31 MB

 exvid-los.r09

14.31 MB

 exvid-los.r10

14.31 MB

 exvid-los.r11

14.31 MB

 exvid-los.r12

14.31 MB

 exvid-los.r13

14.31 MB

 exvid-los.r14

14.31 MB

 exvid-los.r15

14.31 MB

 exvid-los.r16

14.31 MB

 exvid-los.r17

14.31 MB

 exvid-los.r18

14.31 MB

 exvid-los.r19

14.31 MB

 exvid-los.r20

14.31 MB

 exvid-los.r21

14.31 MB

 exvid-los.r22

14.31 MB

 exvid-los.r23

14.31 MB

 exvid-los.r24

14.31 MB

 exvid-los.r25

14.31 MB

 exvid-los.r26

14.31 MB

 exvid-los.r27

14.31 MB

 exvid-los.r28

14.31 MB

 exvid-los.r29

14.31 MB

 exvid-los.r30

14.31 MB

 exvid-los.r31

14.31 MB

 exvid-los.r32

14.31 MB

 exvid-los.r33

14.31 MB

 exvid-los.r34

14.31 MB

 exvid-los.r35

14.31 MB

 exvid-los.r36

14.31 MB

 exvid-los.r37

14.31 MB

 exvid-los.r38

14.31 MB

 exvid-los.r39

14.31 MB

 exvid-los.r40

14.31 MB

 exvid-los.r41

14.31 MB

 exvid-los.r42

14.31 MB

 exvid-los.r43

14.31 MB

 exvid-los.r44

14.31 MB

 exvid-los.r45

14.31 MB

 exvid-los.r46

14.31 MB

 exvid-los.r47

14.31 MB

 exvid-los.r48

14.31 MB

 exvid-los.r49

6.98 MB

 exvid-los.rar

14.31 MB

 exvid-los.sfv

1.20 KB

 Read This Guide First.txt

0.19 KB

 Sample

  exvid-los-sample.avi

5.80 MB

 Subs

  exvid-los-subs.rar

3.68 MB

  exvid-los-subs.sfv

0.08 KB
 

Announce URL: http://tracker.publicbt.com:80

Torrent description

.

http://www.scenetime.com - Hottest private tracker on the net. !!!

New release on http://www.scenetime.com

Seed back for speed


...................................NFO:.................................................









EXVID



Filled the Archives



With:




E240

SP (C) 2009






Cut.Loose.2008.DVDRip.XviD-EXViD




EXViD aims to iNTERNAL those releases which have been lost in the archives.
EXViD aims to PRE non-internal releases which have poor sources and are likely skipped by others.

http://www.imdb.com/title/tt1086214/
Subtitles: NL FD, NL, FR, EN
Date: 2011.09

Director: Jan Verheyen

Genres: Drama

Plot:
Tom, a young and idealistic left wing journalist, is about to settle with his girl friend when
his life and views get shaken up by the young and beautiful Pakistani refugee Nadia. At work his
ideals are more and more confronted with the harsh reality of modern urban society, while his
flamboyant grandfather fights his last personal battle - a battle for his right to die. Cut Loose
is a funny, heartfelt and emotional film about very serious issues. Cut Loose is the first comedy
about euthanasia and the confusions of the multicultural society.

Cast:
Chayb Abdeslam ... Marokkaanse man 1
Sougaipov Abouezed ... Vacha
Raisa Akijeva ... Raisa
Achmed Akkabi ... Jamal
Cem Akkanat
Johan Albert ... Bodyguard den Beer
Ato Amissa ... Kwesi
Mohamed Azzaoui ... Buitenwipper 1
Nadine Bastiaens ... Lezer 2
Lindsay Bervoets ... Griet
Griet Boels
Warre Borgmans
Dirk Boyez ... Lezer 1
Jan de Bruyne ... Dokter 2
Pepijn Caudron ... Tom

Stats:
Format : AVI
Format/Info : Audio Video Interleave
File size : 701 MiB
Duration : 1h 40mn
Overall bit rate : 971 Kbps
Writing application : VirtualDubMod 1.5.10.2 (build 2540/release)
Writing library : VirtualDubMod build 2540/release

Video
ID : 0
Format : MPEG-4 Visual
Format profile : Advanced [email protected]
Format settings, BVOP : Yes
Format settings, QPel : No
Format settings, GMC : No warppoints
Format settings, Matrix : Default (H.263)
Muxing mode : Packed bitstream
Codec ID : XVID
Codec ID/Hint : XviD
Duration : 1h 40mn
Bit rate : 828 Kbps
Width : 640 pixels
Height : 272 pixels
Display aspect ratio : 2.35:1
Frame rate : 25.000 fps
Color space : YUV
Chroma subsampling : 4:2:0
Bit depth : 8 bits
Scan type : Progressive
Bits/(Pixel*Frame) : 0.190
Stream size : 598 MiB (85%)
Writing library : XviD 62

Audio
ID : 1
Format : MPEG Audio
Format version : Version 1
Format profile : Layer 3
Mode : Joint stereo
Mode extension : MS Stereo
Codec ID : 55
Codec ID/Hint : MP3
Duration : 1h 40mn
Bit rate mode : Variable
Bit rate : 128 Kbps
Channel(s) : 2 channels
Sampling rate : 48.0 KHz
Stream size : 93.7 MiB (13%)
Alignment : Aligned on interleaves
Interleave, duration : 24 ms (0.60 video frame)
Interleave, preload duration : 141 ms
Writing library : LAME3.90.
Encoding settings : -m j -V 4 -q 2 -lowpass 17.6 --abr 128




Release notes:
enjoy!

Looking for:
75TB+ Archives
DUTCH/FLEMiSH Archives

Greets: CRBS EPiSODE FiCO FLS iLS KLASSiGER LiPSYNC MADE NODLABS RUNNER SPRiNTER


ASCII DONE BY XX^NFO 2oo9



comments (0)

Main Menu