Movies - Other

The Apartment 1960 DVDRip x264 AC3 v2-SiC

  • Download Faster
  • Download torrent
  • Direct Download
  • Rate this torrent +  |  -
The Apartment 1960 DVDRip x264 AC3 v2-SiC

Download Anonymously! Get Protected Today And Get your 70% discount


Torrent info

Name: The Apartment 1960 DVDRip x264 AC3 v2-SiC

Infohash: 15E9A320520F6F1D14BB2194E753B30A5E6F2BC4

Total Size: 1.39 GB

Seeds: 0

Leechers: 0

Stream: Watch Full Movie @ Movie4u

Last Updated: 2015-09-12 03:58:20 (Update Now)

Torrent added: 2011-08-20 23:35:54



Cheap VPN


Torrent Files List


READ this before playing the Movie.txt (Size: 1.39 GB) (Files: 5)

 READ this before playing the Movie.txt

0.50 KB

 sample

  The.Apartment.1960.DVDRip.x264.AC3.v2-SiC_sample.mkv

33.23 MB

 The.Apartment.1960.DVDRip.x264.AC3.v2-SiC.mkv

1.36 GB

 The.Apartment.1960.DVDRip.x264.AC3.v2-SiC.nfo

7.81 KB

 www.Torrenting.com.txt

0.50 KB
 

tracker

leech seeds
 

Torrent description

.

http://www.torrenting.com/ : Greatest Movie Tracker on The Net!!!

http://www.Torrenting.com : Once For all ;)


www . Torrenting . Com

(((((((((((((= Enjoy No RAR releases =))))))))))))))))))))


...................................NFO:....................................

.

















































The.Apartment.1960.DVDRip.x264.AC3.v2-SiC

Poster:
 The Apartment 1960 DVDRip x264 AC3 v2-SiC preview 0

IMDB Link:
http://www.imdb.com/title/tt0053604/

Description:
A man tries to rise in his company by letting its executives use his apartment for trysts, but complications and a romance of his own ensue.

MediaInfo:
General

Complete name : The.Apartment.1960.DVDRip.x264.AC3.v2-SiC.mkv
Format : Matroska
Format version : Version 2
File size : 1.36 GiB
Duration : 2h 5mn
Overall bit rate : 1 553 Kbps
Writing application : HandBrake 0.9.5
Writing library : libmkv 0.6.4.1

Video
ID : 1
Format : AVC
Format/Info : Advanced Video Codec
Format profile : [email protected]
Format settings, CABAC : Yes
Format settings, ReFrames : 4 frames
Codec ID : V_MPEG4/ISO/AVC
Duration : 2h 5mn
Bit rate : 1 138 Kbps
Width : 720 pixels
Height : 368 pixels
Display aspect ratio : 2.35:1
Original display aspect ratio : 2.35:1
Frame rate mode : Variable
Frame rate : 29.970 fps
Color space : YUV
Chroma subsampling : 4:2:0
Bit depth : 8 bits
Scan type : Progressive
Bits/(Pixel*Frame) : 0.143
Stream size : 1 019 MiB (73%)
Writing library : x264 core 112
Encoding settings : cabac=1 / ref=3 / deblock=1:0:0 / analyse=0x3:0x113 / me=hex / subme=7 / psy=1 / psy_rd=1.00:0.00 / mixed_ref=1 / me_range=16 / chroma_me=1 / trellis=1 / 8x8dct=1 / cqm=0 / deadzone=21,11 / fast_pskip=1 / chroma_qp_offset=-2 / threads=9 / sliced_threads=0 / nr=0 / decimate=1 / interlaced=0 / constrained_intra=0 / bframes=3 / b_pyramid=2 / b_adapt=2 / b_bias=0 / direct=1 / weightb=1 / open_gop=0 / weightp=2 / keyint=300 / keyint_min=29 / scenecut=40 / intra_refresh=0 / rc_lookahead=50 / rc=crf / mbtree=1 / crf=18.0 / qcomp=0.60 / qpmin=3 / qpmax=51 / qpstep=4 / ip_ratio=1.40 / aq=1:1.00
Language : English
Color primaries : BT.601-6 525, BT.1358 525, BT.1700 NTSC, SMPTE 170M
Transfer characteristics : BT.709-5, BT.1361
Matrix coefficients : BT.601-6 525, BT.1358 525, BT.1700 NTSC, SMPTE 170M

Audio #1
ID : 2
Format : AC-3
Format/Info : Audio Coding 3
Mode extension : CM (complete main)
Codec ID : A_AC3
Duration : 2h 5mn
Bit rate mode : Constant
Bit rate : 192 Kbps
Channel(s) : 2 channels
Channel positions : Front: L R
Sampling rate : 48.0 KHz
Bit depth : 16 bits
Compression mode : Lossy
Stream size : 172 MiB (12%)



Screenshots:
 The Apartment 1960 DVDRip x264 AC3 v2-SiC preview 1
 The Apartment 1960 DVDRip x264 AC3 v2-SiC preview 2
 The Apartment 1960 DVDRip x264 AC3 v2-SiC preview 3
 The Apartment 1960 DVDRip x264 AC3 v2-SiC preview 4
 The Apartment 1960 DVDRip x264 AC3 v2-SiC preview 5

Note: Original upload had audio sync problems, sorry for the inconvience.

Encoder: Brian

Enjoy!

Respects to CaptainHomey, Cyanide, CM8, Rx, THC, ELEKTRI4KA,
Killerhz, PA, YeFsTe, BoxSlots, MrRep and everyone in the struggle...

related torrents

Torrent name

health leech seeds Size
 


comments (0)

Main Menu