Movies - Other

Kohayagawa-ke no aki (1961 Yasujirô Ozu JAP no subs

  • Download Faster
  • Download torrent
  • Direct Download
  • Rate this torrent +  |  -

Torrent info

Name:Kohayagawa-ke no aki (1961 Yasujirô Ozu JAP no subs

Infohash: A760BBB630F5393F63EA27B480737C43EF41601F

Total Size: 1.30 GB

Seeds: 0

Leechers: 0

Stream: Watch Full Movie @ Movie4u

Last Updated: 2012-09-12 20:55:13 (Update Now)

Torrent added: 2011-06-17 18:35:31





Torrent Files List


End of Summer.avi (Size: 1.30 GB) (Files: 3)

 End of Summer.avi

1.30 GB

 FAQ README 1st.txt

4.12 KB

 Torrent downloaded from Demonoid.com.txt

0.05 KB
 

Announce URL:

Torrent description

The highly accomplished Japanese director Yasujiro Ozu demonstrates his stylistic touch for deceptive simplicity, rapier wit, and nuances of melancholy in this well-wrought drama about a man in the declining years of his life. Manbei Kohayagawa (Ganjiro Nakamura) has a rich life on three different fronts. He is the head of a brewery that is having problems at the moment, the head of a family in which one widowed daughter needs his help in finding a new mate and the other needs him to help her make the right choice in a future spouse. Manbei has a strong devil-may-care streak and his solution to his burdens at the moment is to look up his old mistress and resume a relationship with her. His decision has unexpected consequences for himself and his family.


http://www.imdb.com/title/tt0055052/


http://www.opensubtitles.org/en/search/sublanguageid-all/idmovie-8779



Format : AVI
Format/Info : Audio Video Interleave
File size : 1.30 GiB
Duration : 1h 43mn
Overall bit rate : 1 811 Kbps
Writing application : Nandub v1.0rc2
Writing library : Nandub build 1853/release
Video #0
ID : 0
Format : MPEG-4 Visual
Format profile : [email protected]
Format settings, BVOP : Yes
Format settings, QPel : No
Format settings, GMC : No warppoints
Format settings, Matrix : Custom
Codec ID : XVID
Codec ID/Hint : XviD
Duration : 1h 43mn
Bit rate : 1 610 Kbps
Width : 640 pixels
Height : 464 pixels
Display aspect ratio : 1.379
Frame rate : 23.976 fps
Resolution : 24 bits
Colorimetry : 4:2:0
Scan type : Progressive
Bits/(Pixel*Frame) : 0.226
Stream size : 1.16 GiB (89%)
Writing library : XviD 1.1.0 (UTC 2005-11-22)
Audio #1
ID : 1
Format : AC-3
Format/Info : Audio Coding 3
Codec ID : 2000
Duration : 1h 43mn
Bit rate mode : Constant
Bit rate : 192 Kbps
Channel(s) : 1 channel
Channel positions : C
Sampling rate : 48.0 KHz
Stream size : 142 MiB (11%)
Alignment : Split accross interleaves
Interleave, duration : 42 ms (1.00 video frame)
Interleave, preload duration : 500 ms

related torrents

Torrent name

health leech seeds Size
 


comments (0)

Main Menu