Movies - Other

John Cassavetes - A child is waiting (1963)

  • Download Faster
  • Download torrent
  • Direct Download
  • Rate this torrent +  |  -
John Cassavetes - A child is waiting (1963)

Download Anonymously! Get Protected Today And Get your 70% discount


Torrent info

Name:John Cassavetes - A child is waiting (1963)

Infohash: 81744EEABC2A297ABDC3DA19C6FF4F7BD72EAE7F

Total Size: 1.37 GB

Seeds: 3

Leechers: 0

Stream: Watch Full Movie @ Movie4u

Last Updated: 2017-08-21 13:31:10 (Update Now)

Torrent added: 2010-09-27 11:25:44




Torrent Files List


A child is waiting.avi (Size: 1.37 GB) (Files: 4)

 A child is waiting.avi

1.37 GB

 A child is waiting.ptb.srt

78.62 KB

 A child is waiting.fra.srt

76.66 KB

 A child is waiting.esp.srt

70.65 KB
 

Announce URL:

Torrent description

Produced by Stanley Kramer, A Child is Waiting is set in an institution for the mentally handicapped, with many actual residents playing supporting and bit roles. Doctor Burt Lancaster and instructor Judy Garland often find themselves at odds over teaching methods, with Garland preferring an intense one-on-one approach with her students. Bruce Ritchey, a non-developmentally challenged youth, plays the retarded son of Gena Rowlands and Steven Hill, whose intellectual and social progress becomes the focal point of the film. The most uplifting sequence in A Child is Waiting takes place during a play staged by the genuinely handicapped children for their parents; while director John Cassavetes gilds the lily with close-ups of the teary-eyed audience, the kids themselves are earnest, engaging, and totally devoid of self-pity. According to Stanley Kramer, Judy Garland left her best work in this film on the cutting room floor; whenever completing a scene in which shed exercised professional restraint, shed insist upon a retake, then resort to the sobbing and breast-beating that her fans had come to expect.

General
Complete name : A child is waiting.avi
Format : AVI
Format/Info : Audio Video Interleave
File size : 1.37 GiB
Duration : 1h 40mn
Overall bit rate : 1 951 Kbps
Writing application : VirtualDubMod 1.5.10.2 (build 2540/release)
Writing library : VirtualDubMod build 2540/release
Video #0
ID : 0
Format : MPEG-4 Visual
Format profile : [email protected]
Format settings, BVOP : Yes
Format settings, QPel : No
Format settings, GMC : No warppoints
Format settings, Matrix : Default (H.263)
Codec ID : XVID
Codec ID/Hint : XviD
Duration : 1h 40mn
Bit rate : 1 749 Kbps
Width : 704 pixels
Height : 416 pixels
Display aspect ratio : 1.692
Frame rate : 25.000 fps
Resolution : 24 bits
Colorimetry : 4:2:0
Scan type : Progressive
Bits/(Pixel*Frame) : 0.239
Stream size : 1.23 GiB (90%)
Writing library : XviD 1.1.0 (UTC 2005-11-22)
Audio #1
ID : 1
Format : AC-3
Format/Info : Audio Coding 3
Codec ID : 2000
Duration : 1h 40mn
Bit rate mode : Constant
Bit rate : 192 Kbps
Channel(s) : 2 channels
Channel positions : L R
Sampling rate : 48.0 KHz
Stream size : 138 MiB (10%)
Alignment : Split accross interleaves
Interleave, duration : 40 ms (1.00 video frame)
Interleave, preload duration : 500 ms

http://www.imdb.com/title/tt0056930/

English audio; French, Spanish and Portuguese subtitles

John Cassavetes - A Child Is Waiting (1963)

related torrents

Torrent name

health leech seeds Size
 


comments (0)

Main Menu