Solitary Man 2009 Swesub Dvdrip Xvid Ac3 Zen Bud

  • Download Faster
  • Download torrent
  • Direct Download
  • Rate this torrent +  |  -
Solitary Man 2009 Swesub Dvdrip Xvid Ac3 Zen Bud

Download Anonymously! Get Protected Today And Get your 70% discount


Torrent info

Name:Solitary Man 2009 Swesub Dvdrip Xvid Ac3 Zen Bud

Infohash: 37DDBC6650B2562CC1F0FB1DB2BB2D0120936E28

Total Size: 1.37 GB

Seeds: 22

Leechers: 7

Stream: Watch Full Movie @ Movie4u

Last Updated: 2010-12-20 20:08:49 (Update Now)

Torrent added: 2010-08-12 02:32:18






Torrent Files List


 

Announce URL: http://exodus.1337x.org/announce

Torrent description

General
Complete name : Solitary.Man.2009.avi
Format : AVI
File size : 1.37 GiB
Duration : 1h 26mn
Overall bit rate : 2 273 Kbps

Video

Format : MPEG-4 Visual
Codec ID/Hint : XviD
Duration : 1h 26mn
Bit rate : 1 814 Kbps
Width : 720 pixels
Height : 576 pixels
Display aspect ratio : 16:9
Stream size : 1.09 GiB (80%)
Writing library : XviD 1.1.2 (UTC 2006-11-01)

Audio

Format : AC-3
Duration : 1h 26mn
Bit rate : 448 Kbps
Channel(s) : 6 channels
Channel positions : Front: L C R, Side: L R, LFE
Sampling rate : 48.0 KHz
Stream size : 276 MiB (20%)

related torrents

Torrent name

health leech seeds Size
 


comments (0)

Main Menu