The Final 2010 Swesub Dvdrip Xvid Ac3 (5 1) Zen Bud

  • Download Faster
  • Download torrent
  • Direct Download
  • Rate this torrent +  |  -
The Final 2010 Swesub Dvdrip Xvid Ac3 (5 1) Zen Bud

Download Anonymously! Get Protected Today And Get your 70% discount


Torrent info

Name:The Final 2010 Swesub Dvdrip Xvid Ac3 (5 1) Zen Bud

Infohash: B2785B24547F36734721DFF04DF5E87E05D74D3B

Total Size: 1.37 GB

Seeds: 0

Leechers: 0

Stream: Watch Full Movie @ Movie4u

Last Updated: 2019-01-08 11:23:21 (Update Now)

Torrent added: 2010-08-07 02:35:05






Torrent Files List


 

Announce URL:

Torrent description

General
Complete name : The.Final.2010.avi
Format : AVI
File size : 1.37 GiB
Duration : 1h 32mn
Overall bit rate : 2 114 Kbps

Video

Format : MPEG-4 Visual
Codec ID/Hint : XviD
Duration : 1h 32mn
Bit rate : 1 655 Kbps
Width : 720 pixels
Height : 356 pixels
Display aspect ratio : 2.35:1
Stream size : 1.07 GiB (78%)
Writing library : XviD 1.1.2 (UTC 2006-11-01)

Audio

Format : AC-3
Duration : 1h 32mn
Bit rate : 448 Kbps
Channel(s) : 6 channels
Channel positions : Front: L C R, Side: L R, LFE
Sampling rate : 48.0 KHz
Stream size : 297 MiB (21%)

related torrents

Torrent name

health leech seeds Size
 


comments (0)

Main Menu