The Runaways 2010 Swesub Dvdrip Xvid Ac3 (5 1) Zen Bud

  • Download Faster
  • Download torrent
  • Direct Download
  • Rate this torrent +  |  -
The Runaways 2010 Swesub Dvdrip Xvid Ac3 (5 1) Zen Bud

Download Anonymously! Get Protected Today And Get your 70% discount


Torrent info

Name:The Runaways 2010 Swesub Dvdrip Xvid Ac3 (5 1) Zen Bud

Infohash: 577F147626BCF66FC9C31F3BB9F2868A1E67BEC4

Total Size: 1.37 GB

Seeds: 0

Leechers: 0

Stream: Watch Full Movie @ Movie4u

Last Updated: 2015-08-30 20:31:17 (Update Now)

Torrent added: 2010-08-01 03:31:03






Torrent Files List


 

tracker

leech seeds
 

Torrent description

General
Complete name : The.Runaways.2010.avi
Format : AVI
File size : 1.37 GiB
Duration : 1h 46mn
Overall bit rate : 1 841 Kbps

Video

Format : MPEG-4 Visual
Codec ID/Hint : XviD
Duration : 1h 46mn
Bit rate : 1 382 Kbps
Width : 720 pixels
Height : 364 pixels
Display aspect ratio : 2.35:1
Stream size : 1.03 GiB (75%)
Writing library : XviD 1.1.2 (UTC 2006-11-01)

Audio

Format : AC-3
Duration : 1h 46mn
Bit rate : 448 Kbps
Channel(s) : 6 channels
Channel positions : Front: L C R, Side: L R, LFE
Sampling rate : 48.0 KHz
Stream size : 342 MiB (24%)
Alignment : Aligned on interleaves

related torrents

Torrent name

health leech seeds Size
 


comments (0)

Main Menu