Clint Eastwood Breezy (1973)

  • Download Faster
  • Download torrent
  • Direct Download
  • Rate this torrent +  |  -
Clint Eastwood Breezy (1973)

Download Anonymously! And Get Protected Today with 6 Months FREE VPN!


Torrent info

Name:Clint Eastwood Breezy (1973)

Infohash: 3E6D2D74D7FD850DEDB3C14888132D8A76E605EC

Total Size: 690.25 MB

Seeds: 5

Leechers: 0

Stream: Watch Full Movie @ Movie4u

Last Updated: 2020-01-28 07:46:37 (Update Now)

Torrent added: 2010-05-11 22:02:39





Torrent Files List


 

Announce URL:

Torrent description

In this Counterculture vs. Establishment romance, Frank Harmon (William Holden) is a middle-aged businessman, recently divorced and a bit bitter about the state of his life and the world in general. One morning, he discovers a pretty, hippie-esque girl who calls herself Breezy (Kay Lenz) asleep on his front porch. Frank asks her to leave and she politely follows suit; she forgets her guitar, however, and returns the next day to retrieve it. Breezy also asks Frank if he would be so kind as to let her take a bath; he agrees, and even lets her sleep at his house that night. A few days later, Breezy turns up at again at Frank's doorstep, with a cop in tow -- after being arrested for vagrancy, she told the police that she lived here with her uncle Frank. Frank plays along and, against his better judgment, agrees to let her stay with him. After spending some time together, Frank and Breezy begin opening up to each other, discussing their feelings on a variety of issues. A friendship grows between them that, in time, becomes a love affair, but Frank's friends find fault in his new romance, and he breaks it off -- a decision he comes to regret. This was the first film Clint Eastwood directed in which he did not star, something he would not do again until Bird in 1988.

General
Complete name : Breezy (1973).avi
Format : AVI
Format/Info : Audio Video Interleave
File size : 690 MiB
Duration : 1h 46mn
Overall bit rate : 906 Kbps
Writing application : VirtualDubMod 1.5.4.1 (build 2178/release)
Writing library : VirtualDubMod build 2178/release
Video #0
ID : 0
Format : MPEG-4 Visual
Format profile : [email protected]
Format settings, BVOP : Yes
Format settings, QPel : No
Format settings, GMC : No warppoints
Format settings, Matrix : Custom
Codec ID : XVID
Codec ID/Hint : XviD
Duration : 1h 46mn
Bit rate : 789 Kbps
Width : 608 pixels
Height : 336 pixels
Display aspect ratio : 16:9
Frame rate : 23.976 fps
Resolution : 24 bits
Colorimetry : 4:2:0
Scan type : Progressive
Bits/(Pixel*Frame) : 0.161
Stream size : 601 MiB (87%)
Writing library : XviD 1.0.2 (UTC 2004-08-29)
Audio #1
ID : 1
Format : MPEG Audio
Format version : Version 1
Format profile : Layer 3
Codec ID : 55
Codec ID/Hint : MP3
Duration : 1h 46mn
Bit rate mode : Variable
Bit rate : 104 Kbps
Nominal bit rate : 128 Kbps
Channel(s) : 2 channels
Sampling rate : 48.0 KHz
Resolution : 16 bits
Stream size : 79.2 MiB (11%)
Alignment : Aligned on interleaves
Interleave, duration : 24 ms (0.58 video frame)
Interleave, preload duration : 177 ms
Writing library : LAME3.97b
Encoding settings : -m j -V 4 -q 2 -lowpass 17 --abr 128
Language : English

http://www.imdb.com/title/tt0069822/


English audio, no subtitles

Clint Eastwood - Breezy (1973)

related torrents

Torrent name

health leech seeds Size
 


comments (0)

Main Menu

Cheap VPN