Movies - Other

The Hurt Locker (2008) DVDRip XviD MAXSPEED

  • Download Faster
  • Download torrent
  • Direct Download
  • Rate this torrent +  |  -
The Hurt Locker (2008) DVDRip XviD MAXSPEED

Download Anonymously! Get Protected Today And Get your 70% discount


Torrent info

Name:The Hurt Locker (2008) DVDRip XviD MAXSPEED

Infohash: 38508548FC90DBF073A82B1047EC27807DDF8493

Total Size: 1.36 GB

Seeds: 0

Leechers: 0

Stream: Watch Full Movie @ Movie4u

Last Updated: 0000-00-00 00:00:00 (Update Now)

Torrent added: 2010-03-08 21:06:25






Torrent Files List


The Hurt Locker (2008) DVDRip XviD-MAXSPEED www.torentz.3xforum.ro.avi (Size: 1.36 GB) (Files: 7)

 The Hurt Locker (2008) DVDRip XviD-MAXSPEED www.torentz.3xforum.ro.avi

1.36 GB

 screencaps.jpg

198.83 KB

 The Hurt Locker (2008) DVDRip XviD-MAXSPEED.nfo

2.65 KB

 Torrent downloaded from Demonoid.com.txt

0.05 KB

 Torrent verified and recommended by vertor.com.txt

0.04 KB

 Torrent downloaded from Rarbg.com.txt

0.03 KB

 tracked_by_h33t_com.txt

0.02 KB
 

Announce URL:

Torrent description

The Hurt Locker (2008) DVDRip XviD-MAX

Format : AVI
Format/Info : Audio Video Interleave
File size : 1.36 GiB
Duration : 2h 5mn
Overall bit rate : 1 556 Kbps
Writing application : VirtualDubMod 1.5.10.2 (build 2542/release)
Writing library : VirtualDubMod build 2542/release
Original source form : MAX TORRENTZ
Copyright : SIGISMUNT

Video
ID : 0
Format : MPEG-4 Visual
Format profile : [email protected]
Format settings, BVOP : Yes
Format settings, QPel : No
Format settings, GMC : No warppoints
Format settings, Matrix : Default (H.263)
Codec ID : XVID
Codec ID/Hint : XviD
Duration : 2h 5mn
Bit rate : 1 421 Kbps
Width : 624 pixels
Height : 336 pixels
Display aspect ratio : 1.857
Frame rate : 25.000 fps
Resolution : 24 bits
Colorimetry : 4:2:0
Scan type : Progressive
Bits/(Pixel*Frame) : 0.271
Stream size : 1.25 GiB (91%)
Writing library : XviD 1.2.1 (UTC 2008-12-04)

Audio
ID : 1
Format : MPEG Audio
Format version : Version 1
Format profile : Layer 3
Codec ID : 55
Codec ID/Hint : MP3
Duration : 2h 5mn
Bit rate mode : Variable
Bit rate : 122 Kbps
Nominal bit rate : 128 Kbps
Channel(s) : 2 channels
Sampling rate : 48.0 KHz
Resolution : 16 bits
Stream size : 109 MiB (8%)
Alignment : Aligned on interleaves
Interleave, duration : 24 ms (0.60 video frame)
Interleave, preload duration : 513 ms
Writing library : LAME3.99a
Encoding settings : -m j -V 4 -q 2 -lowpass 17 --abr 128

http://www.imdb.com/title/tt0887912/

Screens:

The Hurt Locker (2008) DVDRip XviD MAXSPEED preview 0

The Hurt Locker (2008) DVDRip XviD MAXSPEED preview 1

The Hurt Locker (2008) DVDRip XviD MAXSPEED preview 2

The Hurt Locker (2008) DVDRip XviD MAXSPEED preview 3

ScreenCaps:

The Hurt Locker (2008) DVDRip XviD MAXSPEED preview 4

The Hurt Locker (2008) DVDRip XviD-MAX Torrent Free Download

http://thepiratebay.org/user/extremezone/0/7

related torrents

Torrent name

health leech seeds Size
 


comments (0)

Main Menu