Movies - Other

Tooth Fairy CAM XVID IMAGiNE

  • Download Faster
  • Download torrent
  • Direct Download
  • Rate this torrent +  |  -
Tooth Fairy CAM XVID IMAGiNE

Use VPN to make yourself hidden while Downloading torrents.


Torrent info

Name:Tooth Fairy CAM XVID IMAGiNE

Infohash: 111D342156AC488828960BEA562C7772173AD89E

Total Size: 716.56 MB

Seeds: 524

Leechers: 419

Stream: Watch Full Movie @ Movie4u

Last Updated: 2010-09-16 03:28:02 (Update Now)

Torrent added: 2010-01-26 08:55:07



CyberGhost VPN For Torrents

Torrent Files List


Tooth Fairy CAM XVID - IMAGiNE.NFO (Size: 716.56 MB) (Files: 53)

 Tooth Fairy CAM XVID - IMAGiNE.NFO

4.93 KB

 Tooth Fairy CAM XVID - IMAGiNE.r00

14.31 MB

 Tooth Fairy CAM XVID - IMAGiNE.r01

14.31 MB

 Tooth Fairy CAM XVID - IMAGiNE.r02

14.31 MB

 Tooth Fairy CAM XVID - IMAGiNE.r03

14.31 MB

 Tooth Fairy CAM XVID - IMAGiNE.r04

14.31 MB

 Tooth Fairy CAM XVID - IMAGiNE.r05

14.31 MB

 Tooth Fairy CAM XVID - IMAGiNE.r06

14.31 MB

 Tooth Fairy CAM XVID - IMAGiNE.r07

14.31 MB

 Tooth Fairy CAM XVID - IMAGiNE.r08

14.31 MB

 Tooth Fairy CAM XVID - IMAGiNE.r09

14.31 MB

 Tooth Fairy CAM XVID - IMAGiNE.r10

14.31 MB

 Tooth Fairy CAM XVID - IMAGiNE.r11

14.31 MB

 Tooth Fairy CAM XVID - IMAGiNE.r12

14.31 MB

 Tooth Fairy CAM XVID - IMAGiNE.r13

14.31 MB

 Tooth Fairy CAM XVID - IMAGiNE.r14

14.31 MB

 Tooth Fairy CAM XVID - IMAGiNE.r15

14.31 MB

 Tooth Fairy CAM XVID - IMAGiNE.r16

14.31 MB

 Tooth Fairy CAM XVID - IMAGiNE.r17

14.31 MB

 Tooth Fairy CAM XVID - IMAGiNE.r18

14.31 MB

 Tooth Fairy CAM XVID - IMAGiNE.r19

14.31 MB

 Tooth Fairy CAM XVID - IMAGiNE.r20

14.31 MB

 Tooth Fairy CAM XVID - IMAGiNE.r21

14.31 MB

 Tooth Fairy CAM XVID - IMAGiNE.r22

14.31 MB

 Tooth Fairy CAM XVID - IMAGiNE.r23

14.31 MB

 Tooth Fairy CAM XVID - IMAGiNE.r24

14.31 MB

 Tooth Fairy CAM XVID - IMAGiNE.r25

14.31 MB

 Tooth Fairy CAM XVID - IMAGiNE.r26

14.31 MB

 Tooth Fairy CAM XVID - IMAGiNE.r27

14.31 MB

 Tooth Fairy CAM XVID - IMAGiNE.r28

14.31 MB

 Tooth Fairy CAM XVID - IMAGiNE.r29

14.31 MB

 Tooth Fairy CAM XVID - IMAGiNE.r30

14.31 MB

 Tooth Fairy CAM XVID - IMAGiNE.r31

14.31 MB

 Tooth Fairy CAM XVID - IMAGiNE.r32

14.31 MB

 Tooth Fairy CAM XVID - IMAGiNE.r33

14.31 MB

 Tooth Fairy CAM XVID - IMAGiNE.r34

14.31 MB

 Tooth Fairy CAM XVID - IMAGiNE.r35

14.31 MB

 Tooth Fairy CAM XVID - IMAGiNE.r36

14.31 MB

 Tooth Fairy CAM XVID - IMAGiNE.r37

14.31 MB

 Tooth Fairy CAM XVID - IMAGiNE.r38

14.31 MB

 Tooth Fairy CAM XVID - IMAGiNE.r39

14.31 MB

 Tooth Fairy CAM XVID - IMAGiNE.r40

14.31 MB

 Tooth Fairy CAM XVID - IMAGiNE.r41

14.31 MB

 Tooth Fairy CAM XVID - IMAGiNE.r42

14.31 MB

 Tooth Fairy CAM XVID - IMAGiNE.r43

14.31 MB

 Tooth Fairy CAM XVID - IMAGiNE.r44

14.31 MB

 Tooth Fairy CAM XVID - IMAGiNE.r45

14.31 MB

 Tooth Fairy CAM XVID - IMAGiNE.r46

14.31 MB

 Tooth Fairy CAM XVID - IMAGiNE.r47

14.31 MB

 Tooth Fairy CAM XVID - IMAGiNE.r48

4.22 MB

 Tooth Fairy CAM XVID - IMAGiNE.rar

14.31 MB

 Tooth Fairy CAM XVID - IMAGiNE.sfv

5.95 KB

 Tooth Fairy CAM XVID - SAMPLE.avi

11.38 MB
 

Announce URL: http://tracker.thepiratebay.org/announce

Torrent description

*********** **** **** *** ******** *********** **** *** **********
*+* +*+*+* *+*+*+ *+* *+* *+* *+* *+* *+*+* *+* *+*
+*+ +*+ +*+*+ +*+ +*+ +*+ +*+ +*+ *+*+*+ +*+ +*+
+$+ +$+ +*+ +$+ +$++*++$++* *$* +$+ +$+ +*+ +$+ +$++*++$
+$+ +$+ +$+ +$+ +$+ +$+ +$+$ +$+ +$+ +$+$+$ +$+
$+$ $+$ $+$ $+$ $+$ $+$ $+$ $+$ $+$ $+$+$ $+$
$$$$$$$$$$$ $$$ $$$ $$$ $$$ $$$$$$$$ $$$$$$$$$$$ $$$ $$$$ $$$$$$$$$$




Another Fine Release Brought to you from - IMAGiNE
http://imaginegroup.me/

********************************************************************************************************************
Tooth Fairy CAM XVID - IMAGiNE
********************************************************************************************************************

Ripper ...........: IMAGiNE IMDB Rating.......:4.0/10
Video Codec.......: XVID Release Date......:26/01/10
Audio Codec.......:MP3 Theatre Date......:22/01/10
Audio Bitrate.....:128 Runtime.......:1h 33mn
Subtitles.........:NIL Language..........:ENGLISH
Resolution...... 624 x 324 IMDb URL..........:http://www.imdb.com/title/tt0808510/


[color=yellow]DETAILS:[/color]

Video
ID : 0
Format : MPEG-4 Visual
Format profile : Advanced [email protected]
Format settings, BVOP : Yes
Format settings, QPel : No
Format settings, GMC : No warppoints
Format settings, Matrix : Default (H.263)
Muxing mode : Packed bitstream
Codec ID : XVID
Codec ID/Hint : XviD
Duration : 1h 33mn
Bit rate : 920 Kbps
Width : 624 pixels
Height : 324 pixels
Display aspect ratio : 1.926
Frame rate : 25.000 fps
Resolution : 24 bits
Colorimetry : 4:2:0
Scan type : Progressive
Bits/(Pixel*Frame) : 0.182
Stream size : 613 MiB (87%)
Writing library : XviD 1.2.1 (UTC 2008-12-04)

Audio
ID : 1
Format : MPEG Audio
Format version : Version 1
Format profile : Layer 3
Codec ID : 55
Codec ID/Hint : MP3
Duration : 1h 33mn
Bit rate mode : Constant
Bit rate : 128 Kbps
Channel(s) : 2 channels
Sampling rate : 44.1 KHz
Resolution : 16 bits
Stream size : 85.3 MiB (12%)
Alignment : Split accross interleaves
Interleave, duration : 40 ms (1.00 video frame)
Interleave, preload duration : 500 ms


[color=yellow]NOTES:[/color]

IMAGiNE bringing you another release.....
Heres our first go at tooth fairy......video source was a russan cam we were given a few days ago,but had no audio
for it ,still don\'t of our own....so we used TA\'s cam audio for now (thanks to both).
The video was really small res,low bitrate,blurry,had bad glares,colours slightly off ......anyway we cropped,resised and
cleaned it up the best we could.
Audio not too bad for cam to be honest,heard a lot worse cams then this :P
Anyway this wil have to do until we get some line for this and like legion hopefully there wil be better video aswell by then.
Enjoy.

[color=yellow]GREETS:[/color]

FLAWL3SS,ViSiON,DEViSE,FUSiON,STG,SecretMyth,BirdFlu,ELEKTRI4KA
And to all the other p2p grps past and present

Special thanks to Python-Lair for the server :)
And special thanks to supreme-speeds.com for the ripbox :)

[COLOR=RED]Looking for these,syncers,cammer,silver supplier.....Have anything to offer????......
Contact us [email protected][/COLOR]

related torrents

Torrent name

health leech seeds Size

Tooth Fairy Ac3 Xvid Imagine

53 1708 710.44 MB 0
 


comments (0)

Main Menu

CyberGhost VPN