Anime

John Ford The Prisoner of Shark Island [1936]

  • Download Faster
  • Download torrent
  • Direct Download
  • Rate this torrent +  |  -
John Ford The Prisoner of Shark Island [1936]

Download Anonymously! Get Protected Today And Get your 70% discount


Torrent info

Name:John Ford The Prisoner of Shark Island [1936]

Infohash: 5B3037BE13EC6DCAC6C3773A40E1EF9CB6EFA3A8

Total Size: 1.08 GB

Seeds: 0

Leechers: 1

Stream: Watch Full Movie @ Movie4u

Last Updated: 2020-05-01 13:42:02 (Update Now)

Torrent added: 2009-12-08 15:11:16




Torrent Files List


The Prisoner of Shark Island.avi (Size: 1.08 GB) (Files: 5)

 The Prisoner of Shark Island.avi

1.07 GB

 The Prisoner of Shark Island.sub

8.79 MB

 The Prisoner of Shark Island.idx

142.40 KB

 The Prisoner of Shark Island en.srt

83.68 KB

 The Prisoner of Shark Island pt.srt

78.86 KB
 

Announce URL:

Torrent description


Warner Baxter plays Dr. Samuel Mudd, American history\'s most famous victim of circumstance. In 1865, Dr. Mudd, a known Confederate sympathizer, sets the broken leg of a mud-caked stranger who stumbles into his home. The injured man turns out to be John Wilkes Booth, and Mudd is accused of conspiring to murder President Lincoln. Sentenced to hang with the genuine conspirators, Mudd finds his sentence commuted to life imprisonment at the very last moment. He is shipped to Shark Island, a brutal penal colony. Subject to the cruelties of a guard (John Carradine) who hates Mudd because of his \"complicity\" in Lincoln\'s death, the doctor suffers the torments of the damned, while outside Shark Island his wife (Gloria Stuart) campaigns desperately to get her husband pardoned. During a Yellow Fever breakout on Shark Island, Dr. Mudd performs heroically to save the survivors. For his humanitarian efforts, Mudd is finally released and reunited with his wife. While the script glosses over the fact that Dr. Mudd had never been officially pardoned by the US government (the pardon wouldn\'t be granted until years after this film was made), Prisoner of Shark Island strives long and hard to exonerate the man for whom the phrase \"your name is mud!\" was coined. General Complete name : The Prisoner of Shark Island.avi Format : AVI Format/Info : Audio Video Interleave File size : 1.07 GiB Duration : 1h 36mn Overall bit rate : 1 596 Kbps Writing application : VirtualDubMod 1.5.4.1 (build 2178/release) Writing library : VirtualDubMod build 2178/release Video #0 ID : 0 Format : MPEG-4 Visual Format profile : [email protected] Format settings, BVOP : Yes Format settings, QPel : No Format settings, GMC : No warppoints Format settings, Matrix : Custom Codec ID : XVID Codec ID/Hint : XviD Duration : 1h 36mn Bit rate : 1 444 Kbps Width : 640 pixels Height : 480 pixels Display aspect ratio : 4:3 Frame rate : 23.976 fps Resolution : 24 bits Colorimetry : 4:2:0 Scan type : Progressive Bits/(Pixel*Frame) : 0.196 Stream size : 992 MiB (90%) Writing library : XviD 1.2.0.dev47 (UTC 2006-11-01) Audio #1 ID : 1 Format : MPEG Audio Format version : Version 1 Format profile : Layer 3 Codec ID : 55 Codec ID/Hint : MP3 Duration : 1h 36mn Bit rate mode : Variable Bit rate : 71.2 Kbps Nominal bit rate : 88.0 Kbps Channel(s) : 1 channel Sampling rate : 48.0 KHz Resolution : 16 bits Stream size : 48.9 MiB (4%) Alignment : Aligned on interleaves Interleave, duration : 24 ms (0.58 video frame) Interleave, preload duration : 258 ms Writing library : LAME3.97 Encoding settings : -m m -V 4 -q 2 -lowpass 20.5 --abr 88 Language : English Audio #2 ID : 2 Format : MPEG Audio Format version : Version 1 Format profile : Layer 3 Codec ID : 55 Codec ID/Hint : MP3 Duration : 1h 36mn Bit rate mode : Variable Bit rate : 60.0 Kbps Nominal bit rate : 64.0 Kbps Channel(s) : 1 channel Sampling rate : 48.0 KHz Resolution : 16 bits Stream size : 41.2 MiB (4%) Alignment : Aligned on interleaves Interleave, duration : 24 ms (0.58 video frame) Interleave, preload duration : 307 ms Writing library : LAME3.97 Encoding settings : -m m -V 4 -q 2 -lowpass 16.5 --abr 64 Language : EnglishIMDB: tt0028141English audio; English, French and Spanish subpacl (idx/sub), English and Portuguese srt subtitlesPosted at KG by amnesiac

related torrents

Torrent name

health leech seeds Size
 


comments (0)

Main Menu