Movies - Other

Ida.Lupino.The.Hitch-Hiker.1953.DVDrip.XviD.AC3.MKO.AC3

  • Download Faster
  • Download torrent
  • Direct Download
  • Rate this torrent +  |  -
Ida.Lupino.The.Hitch-Hiker.1953.DVDrip.XviD.AC3.MKO.AC3

Download Anonymously! Get Protected Today And Get your 70% discount


Torrent info

Name:Ida.Lupino.The.Hitch-Hiker.1953.DVDrip.XviD.AC3.MKO.AC3

Infohash: B12CE6F5748510A29F58A20F4126DB8074760589

Total Size: 745.75 MB

Seeds: 0

Leechers: 0

Stream: Watch Full Movie @ Movie4u

Last Updated: 2014-02-05 06:53:43 (Update Now)

Torrent added: 2009-11-21 00:10:44



Cheap VPN


Torrent Files List


Ida.Lupino.The.Hitch-Hiker.1953.DVDrip.XviD.AC3.MKO.avi (Size: 745.75 MB) (Files: 4)

 Ida.Lupino.The.Hitch-Hiker.1953.DVDrip.XviD.AC3.MKO.avi

745.63 MB

 Ida.Lupino.The.Hitch-Hiker.1953.DVDrip.XviD.AC3.MKO.PT-BR.srt

44.80 KB

 Ida.Lupino.The.Hitch-Hiker.1953.DVDrip.XviD.AC3.MKO.FR.srt

39.56 KB

 Ida.Lupino.The.Hitch-Hiker.1953.DVDrip.XviD.AC3.SPA.srt

38.57 KB
 

Announce URL:

Torrent description

Daniel Mainwaring took this story right out of the headlines of the day, penning this true story of a mass murderer who was eventually executed in San Quentin\'s gas chamber. Released during McCarthy\'s witch-hunt, Mainwaring was not given credit because Howard R. Hughes, who produced it under RKO, refused to give credit to any \"radicals.\" The story is that of two men on a fishing trip who pick up a hitchhiker. He turns out to be a sadistic psychopath who has committed multiple murders, a sociopath who hates humanity because of his own abuse as a child. He also has an affliction which terrifies these two men: an eye which is permanently open, thereby never allowing them to know if he is really asleep or just faking it--something which he does with regularity to scare them...letting them take off and then meeting up with them just as they feel they have escaped from him. A tense thriller skillfully directed by the only female director of the time, Ida Lupino, it is a suspenseful tale of terror on the highways.

General
Complete name : Ida.Lupino.The.Hitch-Hiker.1953.DVDrip.XviD.AC3.MKO.avi
Format : AVI
Format/Info : Audio Video Interleave
File size : 746 MiB
Duration : 1h 10mn
Overall bit rate : 1 473 Kbps
Writing application : VirtualDubMod 1.5.4.1 (build 2178/release)
Writing library : VirtualDubMod build 2178/release
Video #0
ID : 0
Format : MPEG-4 Visual
Format profile : [email protected]
Format settings, BVOP : Yes
Format settings, QPel : No
Format settings, GMC : No warppoints
Format settings, Matrix : Custom
Codec ID : XVID
Codec ID/Hint : XviD
Duration : 1h 10mn
Bit rate : 1 275 Kbps
Width : 720 pixels
Height : 544 pixels
Display aspect ratio : 4:3
Frame rate : 23.976 fps
Resolution : 24 bits
Colorimetry : 4:2:0
Scan type : Progressive
Bits/(Pixel*Frame) : 0.136
Stream size : 645 MiB (87%)
Writing library : XviD 1.0.3 (UTC 2004-12-20)
Audio #1
ID : 1
Format : AC-3
Format/Info : Audio Coding 3
Codec ID : 2000
Duration : 1h 10mn
Bit rate mode : Constant
Bit rate : 192 Kbps
Channel(s) : 2 channels
Channel positions : L R
Sampling rate : 48.0 KHz
Stream size : 97.2 MiB (13%)
Alignment : Split accross interleaves
Interleave, duration : 96 ms (2.30 video frames)
Interleave, preload duration : 96 ms
Language : un

English audio; French, spanish and Portuguese subtitles

related torrents

Torrent name

health leech seeds Size
 


comments (0)

Main Menu

Cheap VPN