Movies - Other

Ida.Lupino.The.Trouble.With.Angels.1966.DVDrip.XviD.MP3.MKO

  • Download Faster
  • Download torrent
  • Direct Download
  • Rate this torrent +  |  -
Ida.Lupino.The.Trouble.With.Angels.1966.DVDrip.XviD.MP3.MKO

Download Anonymously! Get Protected Today And Get your 70% discount


Torrent info

Name:Ida.Lupino.The.Trouble.With.Angels.1966.DVDrip.XviD.MP3.MKO

Infohash: 65D57B62FC2828F3A24141B94DA1F89F329CD9CC

Total Size: 1.36 GB

Seeds: 1

Leechers: 0

Stream: Watch Full Movie @ Movie4u

Last Updated: 2012-03-24 15:17:47 (Update Now)

Torrent added: 2009-11-21 00:10:36



Cheap VPN


Torrent Files List


Ida.Lupino.The.Trouble.With.Angels.1966.DVDrip.XviD.MP3.MKO.avi (Size: 1.36 GB) (Files: 3)

 Ida.Lupino.The.Trouble.With.Angels.1966.DVDrip.XviD.MP3.MKO.avi

1.36 GB

 Ida.Lupino.The.Trouble.With.Angels.1966.DVDrip.XviD.MP3.MKO.PT-BR.srt

90.64 KB

 Ida.Lupino.The.Trouble.With.Angels.1966.DVDrip.XviD.MP3.MKO.EN.srt

87.15 KB
 

Announce URL: http://tracker.publicbt.com/announce

Torrent description

The Trouble With Angels opens on the first day of school for a new batch of students at St. Francis Academy, run by a very strong-willed Mother Superior (Rosalind Russell). She is used to having things her way, but she may have met her match in the headstrong and independent Mary Clancy (Hayley Mills) and her newfound friend, Rachel Devery (June Harding). Mary, easily bored and ready to rebel at the drop of a hat, comes up with an endless series of \"scathingly brilliant\" schemes designed either to amuse her and Rachel, torture insufferable schoolmate Marvel-Ann, or in some way help them get ahead. Rachel, who would never come up with such ideas on her own, is delighted to go along with them. The duo starts right away by convincing several of the girls to join them in giving fake names to the sisters that register them. Future escapades include guided tours of the nuns\' living quarters, illicit cigarette smoking that brings about the fire brigade, replacing sugar with soap bubbles, and many others. Several times the Mother Superior is on the brink of expelling the girls, but she relents, knowing something of their home lives and that they will benefit from the more nurturing environment of the school. By the end of the film, the girls have indeed grown, and Mary, in particular, has developed a special love for the Academy.

General
Complete name : Ida.Lupino.The.Trouble.With.Angels.1966.DVDrip.XviD.MP3.MKO.avi
Format : AVI
Format/Info : Audio Video Interleave
File size : 1.36 GiB
Duration : 1h 51mn
Overall bit rate : 1 757 Kbps
Writing application : FairUse Wizard - http://fairusewizard.com
Writing library : The best and REALLY easy backup tool
Video #0
ID : 0
Format : MPEG-4 Visual
Format profile : [email protected]
Format settings, BVOP : No
Format settings, QPel : No
Format settings, GMC : No warppoints
Format settings, Matrix : Default (MPEG)
Codec ID : XVID
Codec ID/Hint : XviD
Duration : 1h 51mn
Bit rate : 1 620 Kbps
Width : 640 pixels
Height : 464 pixels
Display aspect ratio : 1.379
Frame rate : 23.976 fps
Resolution : 24 bits
Colorimetry : 4:2:0
Scan type : Progressive
Bits/(Pixel*Frame) : 0.227
Stream size : 1.26 GiB (92%)
Writing library : XviD 1.2.0.dev47 (UTC 2006-11-01)
Audio #1
ID : 1
Format : MPEG Audio
Format version : Version 1
Format profile : Layer 3
Codec ID : 55
Codec ID/Hint : MP3
Duration : 1h 51mn
Bit rate mode : Constant
Bit rate : 128 Kbps
Channel(s) : 2 channels
Sampling rate : 48.0 KHz
Resolution : 16 bits
Stream size : 102 MiB (7%)
Alignment : Aligned on interleaves
Interleave, duration : 42 ms (1.00 video frame)
Interleave, preload duration : 504 ms
Writing library : LAME3.97b
Encoding settings : -m j -V 4 -q 2 -lowpass 17 -b 128

English audio; English and Portuguese subtitles

related torrents

Torrent name

health leech seeds Size
 


comments (0)

Main Menu