Action

Iron Man (2008) DvdRip Divx {1337x} Noir

  • Download 5x Faster
  • Download torrent
  • Direct Download
  • Rate this torrent +  |  -
Iron Man (2008) DvdRip Divx {1337x} Noir

Anonymous and Free Direct Download 300GB+


Torrent info

Name:Iron Man (2008) DvdRip Divx {1337x} Noir

Total Size: 737.27 MB

Magnet: Magnet Link

Seeds: 0

Leechers: 0

Stream: Watch Online @ Movie4u

Last Updated: 2010-11-13 20:02:38 (Update Now)

Torrent added: 2008-09-05 06:42:17



VPN For Torrents

Torrent Files List


1337x.Org.txt (Size: 737.27 MB) (Files: 3)

 1337x.Org.txt

0.03 KB

 Iron Man (2008) [DvdRip] [Divx] {1337x}-Noir.avi

737.27 MB

 Noir.nfo

5.49 KB
 

Announce URL:

Torrent description

Iron Man (2008) DvdRip Divx {1337x} Noir preview 0

Screenshots

Iron Man (2008) DvdRip Divx {1337x} Noir preview 1

Iron Man (2008) DvdRip Divx {1337x} Noir preview 2

Iron Man (2008) DvdRip Divx {1337x} Noir preview 3

Iron Man (2008) DvdRip Divx {1337x} Noir preview 4

[code]
______________________________________________________________
▓▓▓▓▓▓ |
▓█████▓ ▓▓▓▓ |
▓██████▓ ▓▓███▓ |
▓▓██████▓ ▓████▓▓▓▓▓▓ |
██████▓ ▓██▒█▓▓███▓▓ ▓▓▓▓▓▓▓▓▓▓▓▓▓ |
▓██▒████▓ ▓██▒█▓██████▓▓███▓███▓███▓▓ |
▓██▒▒████▓ ▓██▒███▒▒▒▒██▓████████████▓ |
▓██▒▒▒▒███▓ ▓██▒██▒▒▒▒▒▒███▒▒▒██▒█▒▒▒██▓▓ |
▓██▒▒██▒▒██▓▓██▒██▒▒█▒▒▒▒███████▒▒▒▒▒▒██▓ |
▓██▒▒███▒▒██▓██▒██▒█▓█▒▒▒██▒▒▒██▒▒██▒▒▒█▓ |
▓██▒▒████▒▒████▒██▒█▓█▒▒▒██▒▒▒██▒▒███▒██▓ |
▓██▒▒█▓███▒▒███▒██▒▒█▒▒▒▒██▒▒▒██▒▒██████▓ |
▓██▒▒█▓▓███▒▒██▒██▒▒▒▒▒▒▒██▒▒▒██▒▒██▓███▓ |
▓▓██▒▒█▓ ▓███▒▒█▒██▒▒▒▒▒▒▒███████▒▒██▓▓▓▓▓ |
▓▓███▒▒█▓ ▓███▒▒▒███▒▒▒▒▒██▓▓▓▓██▒▒██▓ |
▓████▒▒█▓ ▓███▒▒█████████▓▓ ▓██▒▒██▓ |
▓████▒▒█▓ ▓███▒█▓██████▓▓▓ ▓██████▓ |
▓███████▓ ▓▓████▓▓▓▓▓▓▓▓ ▓▓▓▓▓▓▓▓ |
▓▓▓▓▓▓▓▓▓ ▓▓▓▓▓ |
______________________________________________________________|



*******************
* Iron Man (2008) *
*******************

________________________
General Information |
________________________|
_______________________________________________________________
Type : Movie |
Format : AVI |
Format/Info : Audio Video Interleave |
File size : 737 MiB |
Duration : 1h 52mn |
Subtitles : |
Source : Dvd NTSC |
Genre : Action | Adventure | Drama | Sci-Fi |
Thriller |
IMDB Link : http://www.imdb.com/title/tt0371746/ |
Rating : 8.2/10 |
_______________________________________________________________|
Video
Format : MPEG-4 Visual
Format settings, BVOP : Yes
Format settings, QPel : Yes
Format settings, GMC : No warppoints
Format settings, Matrix : Default
Muxing mode : Packet Bitstream
Codec ID : DX50
Codec ID/Hint : DivX 5
Duration : 1h 52mn
Bit rate : 778 Kbps
Width : 656 pixels
Height : 272 pixels
Display aspect ratio : 2.412
Frame rate : 25.000 fps
Resolution : 24 bits
Colorimetry : 4:2:0
Scan type : Progressive
Bits/(Pixel*Frame) : 0.174
Stream size : 626 MiB (85%)
_______________________________________________________________
Audio
Format : MPEG Audio
Format version : Version 1
Format profile : Layer 3
Codec ID : 55
Codec ID/Hint : MP3
Duration : 1h 52mn
Bit rate mode : Constant
Bit rate : 128 Kbps
Minimum bit rate : 128 Kbps
Channel(s) : 2 channels
Sampling rate : 48.0 KHz
Resolution : 16 bits
Stream size : 103 MiB (14%)
Alignment : Aligned on interleaves
Interleave, duration : 40 ms (1.00 video frame)
Interleave, preload duration : 504 ms
Writing library : LAME3.97
Encoding settings : CBR
_______________________________________________________________
________________
Description |
________________|
_______________________________________________________________
Tony Stark is the complete playboy who also happens to be an |
engineering genius. While in Afghanistan demonstrating a new |
missile he\'s captured and wounded. His captors want him to |
assemble a missile for them but instead he creates an armored |
suit and a means to prevent his death from the shrapnel left |
in his chest by the attack. He uses the armored suit to escape.|
Back in the U.S. he announces his company will cease making |
weapons and he begins work on an updated armored suit only to |
find that Obadiah Stane, his second in command at Stark |
industries has been selling Stark weapons to the insurgents. |
He uses his new suit to return to Afghanistan to destroy the |
arms and then to stop Stane from misusing his research |
_______________________________________________________________|

___________________
Post Information |
___________________|
________________________________
Posted by............: Noir |
Posted on............: 9/05/2008|
________________________________|
[/code]
Iron Man (2008) DvdRip Divx {1337x} Noir preview 5

Iron Man (2008) DvdRip Divx {1337x} Noir preview 6

related torrents

Torrent name

health leech seeds Size
 


comments (0)

Main Menu