Natural Born Killers Directors Cut 1994 {FanPack} DVDRIP AVI XVID AC3 5 1 (Terpripken)

  • Download 5x Faster
  • Download torrent
  • Direct Download
  • Rate this torrent +  |  -

Torrent info

Name:Natural Born Killers Directors Cut 1994 {FanPack} DVDRIP AVI XVID AC3 5 1 (Terpripken)

Total Size: 1.72 GB

Magnet: Magnet Link

Seeds: 0

Leechers: 0

Stream: Watch Online @ Movie4u

Last Updated: 2013-07-14 09:58:04 (Update Now)

Torrent added: 2008-09-05 03:34:08

Torrent Files List

a) Main Movie.avi (Size: 1.72 GB) (Files: 17)

 a) Main Movie.avi

1.19 GB

 b) Director's Commentary 1.avi

5.80 MB

 c) Deleted Scene 1.avi

24.97 MB

 d) Director's Commentary 2.avi

8.78 MB

 e) Deleted Scene 2.avi

88.29 MB

 f) Director's Commentary 3.avi

5.74 MB

 g) Deleted Scene 3.avi

24.50 MB

 h) Director's Commentary 4.avi

2.03 MB

 i) Deleted Scene 4.avi

18.58 MB

 j) Director's Commentary 5.avi

3.76 MB

 k) Deleted Scene 5.avi

27.94 MB

 l) Director's Commentary 6.avi

4.49 MB

 m) Deleted Scene 6.avi

13.72 MB

 Main Movie Info.txt

1.83 KB

 n) Director's Commentary 7.avi

13.74 MB

 o) Alternate Ending.avi

33.65 MB

 p) Chaos Rising (Cast and Crew Interviews).avi

265.90 MB

Announce URL:

Torrent description

This FanPack includes the Feature Film (Director's Cut), 6 deleted scenes with commentary by director Oliver Stone, an alternate ending, and the Documentary "Chaos Rising: The Storm Around Natural Born Killers".

The misadventures of Mickey and Mallory: outcasts, lovers, and serial killers. They travel across Route 666 conducting psychadelic mass-slaughters not for money, not for revenge, just for kicks. Glorified by the media, the pair become legendary folk heroes; their story told by the single person they leave alive at the scene of each of their slaughters. Written by Murray Chapman [email protected]}

Delivery boy Mickey Knox falls in love with customer Mallory Wilson. He soon helps her kill her abusive father and enabling mother, beginning their macabre journey down Route 666. Their M.O.: every few miles, they attack everyone within their site, invariably leaving only one person alive to tell the tale. The two are made famous by unscrupulous reporter Wayne Gale, as they run across the countryside, pursued by the equally sadistic Jack Scagnetti. Just before the trial, a ratings-whoring interview by the same reporter who made them famous leads to pandemonium, not just within the prison itself, but nationwide. A satire of the media, public opinion, and the modern attitude toward violence. Written by T. Brendan Leahy

Release Date: 26 August 1994 (USA)
Genre: Action | Crime | Drama | Romance | Thriller
MPAA: Rated R for extreme violence and graphic carnage, for shocking images, and for strong language and sexuality.
Runtime: 118 min | USA:122 min (director's cut)
Country: USA
Language: English

Directed by: Oliver Stone

Writing credits: Quentin Tarantino (story)
David Veloz(screenplay)
Richard Rutowski(screenplay)
Oliver Stone(screenplay)


Woody Harrelson ... Mickey Knox
Juliette Lewis ... Mallory Knox
Tom Sizemore ... Det. Jack Scagnetti
Rodney Dangerfield ... Ed Wilson, Mallory's Dad
Everett Quinton ... Deputy Warden Wurlitzer
Jared Harris ... London Boy
Pruitt Taylor Vince ... Deputy Warden Kavanaugh
Edie McClurg ... Mallory's Mom
Russell Means ... Old Indian
Lanny Flaherty ... Earl
O-Lan Jones ... Mabel
Robert Downey Jr. ... Wayne Gale
Richard Lineback ... Sonny
Kirk Baltz ... Roger
Ed White ... Pinball Cowboy


Complete name : Natural Born Killers -Director's Cut---1994 {FanPack} DVDRIP AVI XVID AC3 5 1 (Terpripken)
Format : AVI
Format/Info : Audio Video Interleave
File size : 1.19 GiB
Duration : 2h 1mn
Overall bit rate : 1404 Kbps


Format : MPEG-4 Visual
Format profile : [email protected]
Format settings, BVOP : No
Format settings, QPel : No
Format settings, GMC : No warppoints
Format settings, Matrix : Default
Codec ID : XVID
Codec ID/Hint : XviD
Duration : 2h 1mn
Bit rate : 1200 Kbps
Width : 640 pixels
Height : 480 pixels
Display aspect ratio : 4/3
Frame rate : 29.970 fps
Original frame rate : 29.969 fps
Resolution : 8 bits
Colorimetry : 4:2:0
Scan type : Progressive
Bits/(Pixel*Frame) : 0.130
Stream size : 1.02 GiB (85%)
Writing library : Magic0432


Format : AC-3
Format/Info : Audio Coding 3
Codec ID : 2000
Bit rate mode : Constant
Bit rate : 192 Kbps
Channel(s) : 6 channels
Channel positions : Front: L C R, Rear: L R, LFE
Sampling rate : 48.0 KHz
Stream size : 167 MiB (14%)
Alignment : Aligned on interleaves
Interleave, duration : 32 ms (0.96 video frame)

Note: Special Features are MP3 Audio.

related torrents

Torrent name

health leech seeds Size

comments (0)

Main Menu