Anime - Other

Butchered Keiner kann entkommen Xvid MP3

  • Download 5x Faster
  • Download torrent
  • Direct Download
  • Rate this torrent +  |  -
Butchered Keiner kann entkommen Xvid MP3

Anonymous and free Direct Download 300GB+


Torrent info

Name:Butchered Keiner kann entkommen Xvid MP3

Total Size: 699.98 MB

Magnet: Magnet Link

Seeds: 1

Leechers: 1

Stream: Watch Online @ Movie4u

Last Updated: 2010-03-24 16:44:53 (Update Now)

Torrent added: 2008-09-04 15:33:21



VPN For Torrents

Torrent Files List


Butchered.keiner .kann.entkommen.avi (Size: 699.98 MB) (Files: 3)

 Butchered.keiner .kann.entkommen.avi

699.97 MB

 Info.txt

2.91 KB

 t-37442-1.jpg

5.41 KB
 

Announce URL: http://h-n-h.ath.cx/announce.php

Torrent description

Butchered.Keiner.kann.entkommen.Xvid.MP3
Butchered - Keiner kann entkommen (2007)


Releasedate: 14.02.2008
Cinemadate.: STV
Retaildate.: 15.02.2008
Source..: Retail DVD
Runtime.: 89 Minutes
Genre: Horror/Thriller
Size.: 1
Language: German


Mehrere Gste erhalten auf einer Silvesterfeier in einem leerstehenden
Brogebude eine SMS-Message, wonach ein Stockwerk tiefer die bessere Party
mit jeder Menge toller berraschungen auf sie wartet. Zumindest in letzterem
Punkt hat der unbekannte Absender nicht gelogen: Das untere Stockwerk ist
gespickt mit mrderischen Fallen, in denen einer nach dem anderen auf
schreckliche Weise ums Leben kommt. Die Verbliebenen suchen den Weg nach
drauen, doch lauert der Feind in den eigenen Reihen.


Format : AVI
Format/Info : Audio Video Interleave
Dateigre : 700 MiB
Duration : 1h 28min
Gesamte Bitrate : 1101 Kbps
Verwendetes Programm : VirtualDubMod 1.5.4.1 (build 2178/release)
verwendete Encoder-Bibliothek : VirtualDubMod build 2178/release
IAS1 : Deutsch

Video
Format : MPEG-4 Visual
Format profile : Streaming [email protected]
Format settings, BVOP : Ja
Format settings, QPel : Nein
Format settings, GMC : No warpoints
Format settings, Matrix : Custom
Codec ID : XVID
Codec ID/Hint : XviD
Duration : 1h 28min
Bitrate : 954 Kbps
Breite : 576 Pixel
Höhe : 320 Pixel
Bildseitenverhältnis : 16/9
Bildwiederholungsrate : 25.000 FPS
Auflösung : 8 bits
Colorimetry : 4:2:0
Scan type : Progressive
Bits/(Pixel*Frame) : 0.207
Stream size : 607 MiB
verwendete Encoder-Bibliothek : XviD 1.2.0.dev47 (UTC 2006-11-01)

Audio
Format : MPEG Audio
Format version : Version 1
Format profile : Layer 3
Codec ID : 55
Codec ID/Hint : MP3
Duration : 1h 28min
Bitraten-Modus : Variable
Bitrate : 134 Kbps
Minimum bit rate : 144 Kbps
Kanäle : 2 Kanäle
Samplingrate : 48.0 KHz
Auflösung : 16 bits
Stream size : 85.0 MiB
verwendete Encoder-Bibliothek : LAME3.97
Kodierungseinstellungen : ABR


Unsere URL http://h-n-h.ath.cx

related torrents

Torrent name

health leech seeds Size
 


comments (0)

Main Menu