Action

The Dark Knight (2008) H 264 SCR 1337x Noir

  • Download 5x Faster
  • Download torrent
  • Direct Download
  • Rate this torrent +  |  -
The Dark Knight (2008) H 264 SCR 1337x Noir

Anonymous and Direct Download 300GB+ free


Torrent info

Name:The Dark Knight (2008) H 264 SCR 1337x Noir

Total Size: 780.64 MB

Magnet: Magnet Link

Seeds: 1

Leechers: 2

Stream: Watch Online @ Movie4u

Last Updated: 2010-12-04 10:16:00 (Update Now)

Torrent added: 2008-09-04 13:34:09




Torrent Files List


1337x.Org.txt (Size: 780.64 MB) (Files: 3)

 1337x.Org.txt

0.03 KB

 Noir.nfo

5.67 KB

 The Dark Knight (2008) [H.264] [1337x]-Noir.avi

780.64 MB
 

Announce URL: http://genesis.1337x.org:1337/announce

Torrent description

The Dark Knight (2008) H 264 SCR 1337x Noir preview 0

Screenshots

The Dark Knight (2008) H 264 SCR 1337x Noir preview 1

The Dark Knight (2008) H 264 SCR 1337x Noir preview 2

The Dark Knight (2008) H 264 SCR 1337x Noir preview 3
[code]

______________________________________________________________
▓▓▓▓▓▓ |
▓█████▓ ▓▓▓▓ |
▓██████▓ ▓▓███▓ |
▓▓██████▓ ▓████▓▓▓▓▓▓ |
██████▓ ▓██▒█▓▓███▓▓ ▓▓▓▓▓▓▓▓▓▓▓▓▓ |
▓██▒████▓ ▓██▒█▓██████▓▓███▓███▓███▓▓ |
▓██▒▒████▓ ▓██▒███▒▒▒▒██▓████████████▓ |
▓██▒▒▒▒███▓ ▓██▒██▒▒▒▒▒▒███▒▒▒██▒█▒▒▒██▓▓ |
▓██▒▒██▒▒██▓▓██▒██▒▒█▒▒▒▒███████▒▒▒▒▒▒██▓ |
▓██▒▒███▒▒██▓██▒██▒█▓█▒▒▒██▒▒▒██▒▒██▒▒▒█▓ |
▓██▒▒████▒▒████▒██▒█▓█▒▒▒██▒▒▒██▒▒███▒██▓ |
▓██▒▒█▓███▒▒███▒██▒▒█▒▒▒▒██▒▒▒██▒▒██████▓ |
▓██▒▒█▓▓███▒▒██▒██▒▒▒▒▒▒▒██▒▒▒██▒▒██▓███▓ |
▓▓██▒▒█▓ ▓███▒▒█▒██▒▒▒▒▒▒▒███████▒▒██▓▓▓▓▓ |
▓▓███▒▒█▓ ▓███▒▒▒███▒▒▒▒▒██▓▓▓▓██▒▒██▓ |
▓████▒▒█▓ ▓███▒▒█████████▓▓ ▓██▒▒██▓ |
▓████▒▒█▓ ▓███▒█▓██████▓▓▓ ▓██████▓ |
▓███████▓ ▓▓████▓▓▓▓▓▓▓▓ ▓▓▓▓▓▓▓▓ |
▓▓▓▓▓▓▓▓▓ ▓▓▓▓▓ |
______________________________________________________________|



**************************
* The Dark Knight (2008) *
**************************

________________________
General Information |
________________________|
_______________________________________________________________
Type : Movie |
Format : AVI |
Format/Info : Audio Video Interleave |
File size : 780 MiB |
Duration : 152Mn |
Subtitles : |
Source : Dvd Screener NTSC |
Genre : Action | Crime | Thriller |
IMDB Link : http://www.imdb.com/title/tt0468569/ |
Rating : 9.1/10 |
_______________________________________________________________|
Video
Format : AVC
Format/Info : Advanced Video Codec
Format profile : [email protected]
Format settings, CABAC : Yes
Format settings, ReFrames : 3 frames
Codec ID : AVC1
Duration : 2h 24mn
Bit rate : 618 Kbps
Width : 640 pixels
Height : 272 pixels
Display aspect ratio : 2.35
Frame rate : 23.976 fps
Resolution : 24 bits
Colorimetry : 4:2:0
Scan type : Progressive
Bits/(Pixel*Frame) : 0.148
Stream size : 639 MiB (82%)
_______________________________________________________________
Audio
Format : MPEG Audio
Format version : Version 1
Format profile : Layer 3
Codec ID : 55
Codec ID/Hint : MP3
Duration : 2h 24mn
Bit rate mode : Constant
Bit rate : 128 Kbps
Minimum bit rate : 128 Kbps
Channel(s) : 2 channels
Sampling rate : 48.0 KHz
Resolution : 16 bits
Stream size : 132 MiB (17%)
Alignment : Aligned on interleaves
Interleave, duration : 42 ms (1.00 video frame)
Interleave, preload duration : 504 ms
Writing library : LAME3.97
Encoding settings : CBR
_______________________________________________________________
________________
Description |
________________|
_______________________________________________________________
Batman raises the stakes in his war on crime. With the help |
of Lieutenant Jim Gordon and District Attorney Harvey Dent, |
Batman sets out to dismantle the remaining criminal |
organizations that plague the city streets. The partnership |
proves to be effective, but they soon find themselves prey |
to a reign of chaos unleashed by a rising criminal mastermind |
known to the terrified citizens of Gotham as The Joker | |
_______________________________________________________________|
____________________
Playback Information|
____________________|
_______________________________________________________________
For best playback with my movie you will need an h.264/x264 |
Decoder.My personal favorite is CoreAvc Professional. |
http://www.coreavc.com/ . You can download it with serial |
and application from My site here. |
http://noirsstuff.googlepages.com/home |
You can also use ffdshow for playback as well,VLC media Player,|
And media player classic. |
_______________________________________________________________|
___________________
Post Information |
___________________|
________________________________
Posted by............: Noir |
Posted on............: 9/04/2008|
________________________________|
[/code]
The Dark Knight (2008) H 264 SCR 1337x Noir preview 4

The Dark Knight (2008) H 264 SCR 1337x Noir preview 5

related torrents

Torrent name

health leech seeds Size
 


comments (0)

Main Menu