Comedy

Its a Boy Girl Thing 2006DvDrip DemonukNIKONRG

  • Download 5x Faster
  • Download torrent
  • Direct Download
  • Rate this torrent +  |  -
Its a Boy Girl Thing 2006DvDrip DemonukNIKONRG

Anonymous and Free Direct Download 300GB+


Torrent info

Name:Its a Boy Girl Thing 2006DvDrip DemonukNIKONRG

Total Size: 700.01 MB

Magnet: Magnet Link

Seeds: 0

Leechers: 0

Stream: Watch Online @ Movie4u

Last Updated: 2012-12-30 12:00:35 (Update Now)

Torrent added: 2008-09-04 09:41:02



VPN For Torrents

Torrent Files List


It's a Boy Girl Thing.info.txt (Size: 700.01 MB) (Files: 3)

 It's a Boy Girl Thing.info.txt

1.50 KB

 ITS_A_BOY_GIRL_THING.avi

700.00 MB

 Torrent downloaded from Demonoid.com.txt

0.05 KB
 

Announce URL:

Torrent description

It's a Boy Girl Thing-[2006][DvDrip]-Demonuk[NIKONRG]
__________________
MOVIE INFORMATION
__________________
TITLE.............:It's a Boy Girl Thing
DIRECTOR..........:Nick Hurran
YEAR..............: 2006
RUNTIME...........:1h 30mn
GENRE.............: Comedy | Romance
FORMAT.............:AVI
Format/Info.........:Audio Video Interleave
File size..........:700 MiB
Overal bit rate....1077 Kbps
SOURCE............:PAL DVD
IMDB..............: http://www.imdb.com/title/tt0482527/
USER RATING............: 6.3/10 (3,640 votes)
__________________
VIDEO INFORMATION
__________________
Format: MPEG-4 Visual
Format profile: Streaming [email protected]
Format settings, BVOP: Yes
Format settings, QPel: No
Format settings, GMC: No warppoints
Format settings, Matrix: Custom
Codec ID: XVID
Codec ID/Hint: XviD
Duration: 1h 30mn
Bit rate: 954 Kbps
Width: 688 pixels
Height: 304 pixels
Display aspect ratio: 2.25
Frame rate: 25.000 fps
Resolution: 8 bits
Colorimetry: 4:2:0
Scan type: Progressive
Bits/(Pixel*Frame):0.182
Stream size: 620 MiB (89%)

__________________
AUDIO INFORMATION
__________________
Format: MPEG Audio
Format version: Version 1
Format profile: Layer 3
Codec ID: 55
Codec ID/Hint: MP3
Duration: 1h 30mn
Bit rate mode: Variable
Bit rate: 111 Kbps
Minimum bit rate: 128 Kbps
Channel(s): 2 channels
Sampling rate: 48.0 KHz
Resolution: 16 bits
Stream size: 71.8 MiB (10%)
Writing library: LAME3.97
Encoding settings: ABR

__________________
MAIN CAST
__________________
Samaire Armstrong ... Nell Bedworth
Kevin Zegers ... Woody Deane
Sherry Miller ... Katherine Bedworth
Robert Joy ... Ted Bedworth
Sharon Osbourne ... Della Deane

__________________
PLOT OUTLINE
__________________
'It's a Boy Girl Thing' uses the high school comedy structure as a basis to explore teenage insecurities,
hopes and fears. Nell (the smart, cute girl) and Woody (the big dumb jock) are two teenage rivals
who find themselves in each others bodies after arguing in front of an Aztec statue in a museum,
which then transfers their souls as they sleep, causing them to awake in each other bodies.
After trying to work things out but coming to no conclusion, both Nell and Woody,
inside each others bodies, begin ruining each others lives. But after all this bickering,
both of them soon discover that if they work together and help each other,
a happy ending might turn out after all.
__________________
Info hash:47E607C13D522320D253A8DDDBCB3EF34B80D79A
Tracker announce: http://inferno.demonoid.com:3394/announce
Tracker announce: http://open.tracker.thepiratebay.org:80/announce
Tracker Scrape: http://inferno.demonoid.com:3394/scrape

__________________
Contents of download:

It's a Boy Girl Thing-[2006][DvDrip]-Demonuk[NIKONRG].avi (700 MiB)
It's a Boy Girl Thing.info.txt (1.50Kb)
Torrent downloaded from Demonoid.com.txt (47bytes)
___________________________________________________________________
> For Detailed Information on New Releases and Popular Request Click Here


^>>>>>>>>>>>>>>>>>>>>>>>>>>>>>>>>>>>>>>>>>>>>>>>>>>>>>>>>>>>>>>>>>>.^
^......................................................................................................@....................@......@.@@@.@...............^
^............@@...........@....@....@.......@...............................................@..................@......@................@...........^
^............@.@..........@...........@......@.......@@@@........ @..@.@.@......@...............@.......@..................@.........^
^............@..@.........@....@....@.....@....@..............@.....@@.........@......@............@........@...................@........^
^............@...@........@....@....@....@....@................@....@.............@.......@........@..........@...................@........^
^............@....@.......@....@....@...@....@..................@...@.............@.........@.....@...........@..................@.........^
^............@.....@......@....@....@@......@....................@..@.............@...........@@..............@@@@@@@............^
^............@......@.....@....@....@@......@....................@..@.............@.........@.....@...........@..............................^
^............@.......@....@....@....@...@....@...................@..@.............@........@.........@........@..............................^
^............@........@...@....@....@....@....@.................@...@.............@......@............@.......@..............................^
^............@.........@..@....@....@.....@....@...............@....@.............@....@................@.....@..............................^
^............@..........@.@....@....@......@....@.............@.....@.............@...@...................@...@..............................^
^............@...........@@....@....@.......@.....@.@.@..@......@.............@..@.....................@..@..............................^
^<<<<<<<<<<<<<<<<<<<<<<<<<<<<<<<<<<<<<<<<<<<<<<<<<<<<<<<<<<<<<<<<<<.^


related torrents

Torrent name

health leech seeds Size
 


comments (0)

Main Menu