Rock

FLAC PFM Per Un Amico (Jap Remaster) tntvillage scambioetico org

  • Download 5x Faster
  • Download torrent
  • Direct Download
  • Rate this torrent +  |  -
FLAC PFM Per Un Amico (Jap Remaster) tntvillage scambioetico org

Anonymous and Direct Download 300GB+ free


Torrent info

Name:FLAC PFM Per Un Amico (Jap Remaster) tntvillage scambioetico org

Total Size: 200.34 MB

Magnet: Magnet Link

Seeds: 0

Leechers: 0

Stream: Watch Online @ Movie4u

Last Updated: 2015-05-23 13:50:58 (Update Now)

Torrent added: 2008-09-03 12:44:28




Torrent Files List


01.Appena un po'.flac (Size: 200.34 MB) (Files: 8)

 01.Appena un po'.flac

44.58 MB

 02.Generale.flac

27.93 MB

 03.Per un amico.flac

33.70 MB

 04.Il banchetto.flac

49.02 MB

 05.Geranio.flac

45.10 MB

 PFM - Per Un Amico.cue

0.71 KB

 PFM - Per Un Amico.log

1.83 KB

 PFM - Per Un Amico.m3u

0.18 KB
 

tracker

leech seeds
 

Torrent description

Artist: Premiata Forneria Marconi
Title: Per Un Amico
Year: 1972
Genre: Progressive Rock
Label: Numero Uno

[::Tracklist::]
1. Appena un po' - 7:38
2. Generale - 4:13
3. Per un amico - 5:20
4. Il banchetto - 8:34
5. Geranio - 8:04

Exact Audio Copy V0.99 prebeta 4 from 23. January 2008

EAC extraction logfile from 2. August 2008, 12:22

Unknown Artist / Unknown Title

Used drive : HL-DT-STDVD-ROM GDR8164B Adapter: 0 ID: 0

Read mode : Secure
Utilize accurate stream : Yes
Defeat audio cache : Yes
Make use of C2 pointers : Yes

Combined read/write offset correction : 0
Overread into Lead-In and Lead-Out : No
Fill up missing offset samples with silence : Yes
Delete leading and trailing silent blocks : No
Null samples used in CRC calculations : No
Used interface : Native Win32 interface for Win NT & 2000

Used output format : User Defined Encoder
Selected bitrate : 768 kBit/s
Quality : High
Add ID3 tag : No
Command line compressor : C:\Programmi\Exact Audio Copy\FLAC\FLAC.EXE
Additional command line options : -6 -V -T "ARTIST=%a" -T "TITLE=%t" -T "ALBUM=%g" -T "DATE=%y" -T "TRACKNUMBER=%n" -T "GENRE=%m" -T "COMMENT=%e" %s -o %d


TOC of the extracted CD

Track | Start | Length | Start sector | End sector
---------------------------------------------------------
1 | 0:00.00 | 7:43.67 | 0 | 34791
2 | 7:43.67 | 4:17.45 | 34792 | 54111
3 | 12:01.37 | 5:25.13 | 54112 | 78499
4 | 17:26.50 | 8:38.35 | 78500 | 117384
5 | 26:05.10 | 8:06.65 | 117385 | 153899


Range status and errors

Selected range

Filename D:\Musica\flac\PFM\PFM - Per Un Amico (Jap. Edition)\Unknown Artist - Unknown Title.wav

Peak level 100.0 %
Range quality 99.9 %
Test CRC 373EFD08
Copy CRC 373EFD08
Copy OK

No errors occurred

End of status report

related torrents

Torrent name

health leech seeds Size
 


comments (0)

Main Menu