Action

Hancock CAM XviD PLUBE AVI (2008) zip torr

  • Download 5x Faster
  • Download torrent
  • Direct Download
  • Rate this torrent +  |  -
Hancock CAM XviD PLUBE AVI (2008) zip torr

Anonymous and Direct Download 300GB+ free


Torrent info

Name:Hancock CAM XviD PLUBE AVI (2008) zip torr

Total Size: 698.96 MB

Magnet: Magnet Link

Seeds: 1

Leechers: 30

Stream: Watch Online @ Movie4u

Last Updated: 2010-02-19 12:46:36 (Update Now)

Torrent added: 2008-07-04 21:36:42




Torrent Files List


Hancock - CAM.XviD-PLUBE.AVI (2008).zip (Size: 698.96 MB) (Files: 3)

 Hancock - CAM.XviD-PLUBE.AVI (2008).zip

698.96 MB

 password.html

1.96 KB

 readme.txt

0.47 KB
 

Announce URL: http://tpb.tracker.thepiratebay.org/announce

Torrent description

General
Complete name : Hancock - CAM.XviD-PLUBE.AVI (2008).avi
Format : AVI
Format/Info : Audio Video Interleave
File size : 699 MiB
Duration : 1h 25mn
Overal bit rate : 1143 Kbps
Movie name : hc-plube
Writing application : PLUBE
Comment : PLUBE.COM
IAS1 : ???

Video
Format : MPEG-4 Visual
Format profile : Streaming [email protected]
Format settings, BVOP : Yes
Format settings, QPel : No
Format settings, GMC : No warppoints
Format settings, Matrix : Custom
Codec ID : XVID
Codec ID/Hint : XviD
Duration : 1h 25mn
Bit rate : 1018 Kbps
Width : 480 pixels
Height : 336 pixels
Display aspect ratio : 1.429
Frame rate : 29.970 fps
Resolution : 8 bits
Colorimetry : 4:2:0
Scan type : Progressive
Bits/(Pixel*Frame) : 0.211
Stream size : 622 MiB
Writing library : XviD 1.2.0.dev47 (UTC 2006-11-01)

Audio
Format : MPEG Audio
Format version : Version 1
Format profile : Layer 3
Codec ID : 55
Codec ID/Hint : MP3
Duration : 1h 25mn
Bit rate mode : Variable
Bit rate : 111 Kbps
Minimum bit rate : 128 Kbps
Channel(s) : 2 channels
Sampling rate : 48.0 KHz
Resolution : 16 bits
Stream size : 67.9 MiB
Writing library : LAME3.97
Encoding settings : ABR
Language : english

Hancock   CAM XviD PLUBE AVI (2008) zip torr preview 0

Hancock   CAM XviD PLUBE AVI (2008) zip torr preview 1

Hancock   CAM XviD PLUBE AVI (2008) zip torr preview 2

Hancock   CAM XviD PLUBE AVI (2008) zip torr preview 3

Hancock   CAM XviD PLUBE AVI (2008) zip torr preview 4

Hancock   CAM XviD PLUBE AVI (2008) zip torr preview 5

Hancock   CAM XviD PLUBE AVI (2008) zip torr preview 6

related torrents

Torrent name

health leech seeds Size
 


comments (0)

Main Menu