Music - Other

Indigo Ocean Dreams childrens stories

  • Download 5x Faster
  • Download torrent
  • Direct Download
  • Rate this torrent +  |  -
Indigo Ocean Dreams childrens stories

Anonymous and free Direct Download 300GB+


Torrent info

Name:Indigo Ocean Dreams childrens stories

Total Size: 80.18 MB

Magnet: Magnet Link

Seeds: 3

Leechers: 2

Stream: Watch Online @ Movie4u

Last Updated: 2011-01-03 02:09:02 (Update Now)

Torrent added: 2008-09-03 03:36:05



VPN For Torrents

Torrent Files List


1 Angry Octopus.mp3 (Size: 80.18 MB) (Files: 11)

 1 Angry Octopus.mp3

16.02 MB

 2 Affirmation Weaver .mp3

12.70 MB

 3 Bubble Riding .mp3

18.57 MB

 4 Sea Otter Cove .mp3

18.55 MB

 5 Relaxing Music Fadeout.mp3

14.05 MB

 angry-octopus-preview.pdf

183.97 KB

 cover-Angry-Octopus.jpg

12.61 KB

 Indigo Ocean Dreams Description.txt

1.81 KB

 Indigo1.jpg

97.11 KB

 Torrent downloaded from Demonoid.com.txt

0.05 KB

 tracked_by_h33t_com.txt

0.03 KB
 

Announce URL: http://www.h33t.com:3310/announce

Torrent description

Help children handle stress and build self esteem.

Children love to unwind and relax with this fun exercise known as "muscular relaxation". Children

relate to the angry octopus in this story as the sea child shows him how to take a deep breath, calm

down, and manage his anger. This effective stress and anger management technique focuses awareness on

various muscle groups to create a complete resting of the mind and body. Muscular relaxation can lower

stress and anxiety levels. It can be used to decrease pain and anger. This engaging story quiets the

mind and relaxes the body so your child can let go of anger and fall asleep peacefully.
Stories with peaceful music included.
--------------------------------------------

Audio Codec MPEG-1 Layer 3 (MP3)
44100Hz 178 kb/s tot , Joint Stereo LAME3.97

------------------------------------------------

Exact Audio Copy V0.99 prebeta 4 from 23. January 2008



Used output format : User Defined Encoder
Selected bitrate : 192 kBit/s
Quality : High
Add ID3 tag : Yes
Command line compressor : C:\Program Files\AutoGK\tools\lame\LAME.EXE
Additional command line options : %l-V 5%l%h-V 2%h --vbr-new %s %d


TOC of the extracted CD

Track | Start | Length | Start sector | End sector
---------------------------------------------------------
1 | 0:00.00 | 14:41.20 | 0 | 66094
2 | 14:41.20 | 10:30.58 | 66095 | 113402
3 | 25:12.03 | 13:50.19 | 113403 | 175671
4 | 39:02.22 | 14:36.20 | 175672 | 241391
5 | 53:38.42 | 10:04.01 | 241392 | 286692

Hash : 4D7B824C5554EC5D6174638F875E18E57BA757F7

Source: http://www.litebooks.net/

[
If you enjoy this CD why not purchase some of their other fine products.




related torrents

Torrent name

health leech seeds Size
 


comments (0)

Main Menu