TV Shows

Wwe tlc preview 2009 12 13 ws pdtv x264 otrt

  • Download 5x Faster
  • Download torrent
  • Direct Download
  • Rate this torrent +  |  -
Wwe tlc preview 2009 12 13 ws pdtv x264 otrt

Free and Direct Download with Usenet.nl 300GB+ free


Torrent info

Name:Wwe tlc preview 2009 12 13 ws pdtv x264 otrt

Total Size: 197.47 MB

Magnet: Magnet Link

Seeds: 0

Leechers: 0

Stream: Watch Online @ Movie4u

Last Updated: 2010-12-04 14:59:06 (Update Now)

Torrent added: 2009-12-13 18:13:09





Torrent Files List


 

Announce URL: http://tracker.thepiratebay.org/announce

Torrent description

Format : AVI
Format/Info : Audio Video Interleave
File size : 197 MiB
Duration : 23mn 34s
Overall bit rate : 1 171 Kbps
Writing application : MEncoder UNKNOWN-4.2.4
Writing library : MPlayer

Video
ID : 0
Format : AVC
Format/Info : Advanced Video Codec
Format profile : [email protected]
Format settings, CABAC : Yes
Format settings, ReFrames : 2 frames
Codec ID : h264
Duration : 23mn 34s
Bit rate : 1 030 Kbps
Nominal bit rate : 1 050 Kbps
Width : 640 pixels
Height : 368 pixels
Display aspect ratio : 16:9
Frame rate : 25.000 fps
Resolution : 24 bits
Colorimetry : 4:2:0
Scan type : Progressive
Bits/(Pixel*Frame) : 0.175
Stream size : 174 MiB (88%)
Writing library : x264 core 67 r1173 f6d3166


Audio
ID : 1
Format : MPEG Audio
Format version : Version 1
Format profile : Layer 3
Format_Settings_Mode : Joint stereo / MS Stereo
Codec ID : 55
Codec ID/Hint : MP3
Duration : 23mn 34s
Bit rate mode : Constant
Bit rate : 128 Kbps
Channel(s) : 2 channels
Sampling rate : 48.0 KHz
Resolution : 16 bits
Video delay : 40ms
Stream size : 21.6 MiB (11%)
Alignment : Aligned on interleaves
Interleave, duration : 24 ms (0.60 video frame)

related torrents

Torrent name

health leech seeds Size
 

comments (0)

Main Menu