Drama

The Grifters 1990 DVDRIP AVI XVID AC3 {English & French} (Terpripken)

  • Download 5x Faster
  • Download torrent
  • Direct Download
  • Rate this torrent +  |  -
The Grifters 1990 DVDRIP AVI XVID AC3 {English & French} (Terpripken)

Free and Direct Download with Usenet 300GB+ free


Torrent info

Name:The Grifters 1990 DVDRIP AVI XVID AC3 {English & French} (Terpripken)

Total Size: 2.00 GB

Magnet: Magnet Link

Seeds: 0

Leechers: 0

Stream: Watch Online @ Movie4u

Last Updated: 2010-12-04 08:33:35 (Update Now)

Torrent added: 2008-09-02 15:40:32




Torrent Files List


The Grifters.avi (Size: 2.00 GB) (Files: 2)

 The Grifters.avi

2.00 GB

 The Grifters.avi.txt

3.03 KB
 

Announce URL: http://tracker.torrentbox.com:2710/announce

Torrent description

Lily works for a bookie, placing bets to change the odds at the track. When her son is hospitalized after an unsuccessful con job and resultant beating, she finds that even an absentee parent has feelings for her child. This causes her own job to go wrong as well. Each of them faces the down side of the grift. Written by John Vogel [email protected]}

When con artist Roy Dillon (Cusack) is visited by his Mother, Lilly (Huston), who is also a con artist, she sends Roy off to the hospital because of a blow to the gut he suffered while working the grift. Roy's girlfriend, Myra (Bening), the third con artist, comes to visit Roy, and we discover that Lilly and Myra don't get along. After he is released from the hospital, Roy and Myra go on a little trip, where he is propositioned to be partners in crime with Myra. Everything soon falls apart for the three con artists, which leads to a bloody climax. Written by Justin Sharp [email protected]}

Release Date: 4 January 1991 (USA)
Genre: Crime | Drama | Thriller
Runtime: 119 min | Portugal: 110 min
Country: USA
Language: English

Director: Stephen Frears
Writers (WGA): Jim Thompson (novel) Donald E. Westlake (screenplay)

Cast


Anjelica Huston ... Lilly Dillon
John Cusack ... Roy Dillon
Annette Bening ... Myra Langtry
Jan Munroe ... Guy at Bar
Robert Weems ... Racetrack Announcer
Stephen Tobolowsky ... Jeweler
Jimmy Noonan ... Bartender
Richard Holden ... Cop
Henry Jones ... Simms
Michael Laskin ... Irv
Eddie Jones ... Mintz
Sandy Baron ... Doctor
Lou Hancock ... Nurse
Gailard Sartain ... Joe
Noelle Harling ... Nurse Carol Flynn

General
Complete name : The Grifters---1990 DVDRIP AVI XVID AC3 {English & French} (Terpripken)
Format : AVI
Format/Info : Audio Video Interleave
Format profile : OpenDML
File size : 2.00 GiB
Duration : 1h 50mn
Overall bit rate : 2589 Kbps
Writing application : VirtualDubMod 1.5.4.1 (build 2178/release)
Writing library : VirtualDubMod build 2178/release
IAS1 : English
IAS2 : Français

Video
Format : MPEG-4 Visual
Format profile : Streaming [email protected]
Format settings, BVOP : No
Format settings, QPel : No
Format settings, GMC : No warppoints
Format settings, Matrix : Custom
Codec ID : XVID
Codec ID/Hint : XviD
Duration : 1h 50mn
Bit rate : 2257 Kbps
Width : 720 pixels
Height : 400 pixels
Display aspect ratio : 16/9
Frame rate : 23.976 fps
Resolution : 8 bits
Colorimetry : 4:2:0
Scan type : Progressive
Bits/(Pixel*Frame) : 0.327
Stream size : 1.74 GiB (87%)
Writing library : XviD 1.2.0.dev47 (UTC 2006-11-01)

Audio #1
Format : AC-3
Format/Info : Audio Coding 3
Format profile : Dolby Digital
Codec ID : 2000
Duration : 1h 50mn
Bit rate mode : Constant
Bit rate : 192 Kbps
Channel(s) : 2 channels
Channel positions : L R
Sampling rate : 48.0 KHz
Stream size : 152 MiB (7%)
Alignment : Split accross interleaves
Interleave, duration : 96 ms (2.30 video frames)
Interleave, preload duration : 96 ms

Audio #2
Format : MPEG Audio
Format version : Version 1
Format profile : Layer 3
Codec ID : 55
Codec ID/Hint : MP3
Duration : 1h 50mn
Bit rate mode : Variable
Bit rate : 120 Kbps
Minimum bit rate : 128 Kbps
Channel(s) : 2 channels
Sampling rate : 48.0 KHz
Resolution : 16 bits
Stream size : 95.0 MiB (5%)
Alignment : Aligned on interleaves
Interleave, duration : 24 ms (0.58 video frame)
Interleave, preload duration : 153 ms
Writing library : LAME3.97
Encoding settings : ABR

related torrents

Torrent name

health leech seeds Size
 

comments (0)

Main Menu