TV Shows

[gg takajun] Kara No Kyoukai The Garden Of Sinners 07

  • Download 5x Faster
  • Download torrent
  • Direct Download
  • Rate this torrent +  |  -
[gg takajun] Kara No Kyoukai The Garden Of Sinners 07

Anonymous and Free Direct Download


Torrent info

Name:[gg takajun] Kara No Kyoukai The Garden Of Sinners 07

Total Size: 2.00 GB

Magnet: Magnet Link

Seeds: 0

Leechers: 0

Stream: Watch Online @ Movie4u

Last Updated: 2011-12-28 16:22:07 (Update Now)

Torrent added: 2009-12-13 13:17:59



VPN For Torrents

Torrent Files List


 

Announce URL:

Torrent description

Format : Matroska
File size : 2.06 GiB
Duration : 2h 1mn
Overall bit rate : 2 424 Kbps
Movie name : Kara no Kyoukai The Garden of Sinners - Chapter 7: Murder Speculation (Second Half)
Encoded date : UTC 2009-12-13 07:58:07
Writing application : mkvmerge v2.9.8 ('C'est le bon') built on Aug 13 2009 12:49:06
Writing library : libebml v0.7.7 + libmatroska v0.8.1
Cover : Yes / Yes / Yes / Yes / Yes / Yes / Yes / Yes / Yes / Yes / Yes / Yes

Video
ID : 1
Format : AVC
Format/Info : Advanced Video Codec
Format profile : [email protected]
Format settings, CABAC : Yes
Format settings, ReFrames : 16 frames
Muxing mode : Container [email protected]
Codec ID : V_MPEG4/ISO/AVC
Duration : 2h 1mn
Bit rate : 1 927 Kbps
Nominal bit rate : 1 970 Kbps
Width : 704 pixels
Height : 480 pixels
Display aspect ratio : 16/9
Frame rate : 23.976 fps
Resolution : 24 bits
Colorimetry : 4:2:0
Scan type : Progressive
Bits/(Pixel*Frame) : 0.238
Stream size : 1.63 GiB (79%)
Title : Kara no Kyoukai 7: Murder Speculation (Second Half)
Writing library : x264 core 80 r1373 4322f63

Audio
ID : 2
Format : AC-3
Format/Info : Audio Coding 3
Codec ID : A_AC3
Duration : 2h 1mn
Bit rate mode : Constant
Bit rate : 448 Kbps
Channel(s) : 6 channels
Channel positions : Front: L C R, Surround: L R, LFE
Sampling rate : 48.0 KHz
Stream size : 389 MiB (18%)
Title : 5.1 AC3

Text
ID : 3
Format : ASS
Codec ID : S_TEXT/ASS
Codec ID/Info : Advanced Sub Station Alpha
Title : ASS
Language : English

Menu
00:00:00.000 : en:this movie is all very cute and heartwarming, even the claymation
00:01:24.459 : en:I mean just look at 'em being all lovey-dovey
00:04:19.509 : en:Kara no Kyoukai The Garden of Sinners - Chapter 7
00:09:29.861 : en:well okay maybe this isn't all about cuteness and deredere after all
00:12:33.711 : en:<@freya> i would kill a guy if he spammed me 17 messages ( ???-) ~ ¦
00:27:03.622 : en:okay now shit's just getting creepy
00:32:19.771 : en:lol Mikiya on drugs (why did he need to try dat shit anyway)
00:41:41.040 : en:that Shirazumi is one fucked up dude
00:49:24.378 : en:ITC: cameos from the previous movies, spot them all and win a prize
00:58:08.276 : en:you can p much just skip this entire chapter, it is full of incomprehensible nasuwords
01:13:22.106 : en:how exactly do you grow weed (or whatever) inside a locked warehouse with no windows
01:18:45.512 : en:SALIVA RAPE (this chapter will make you rage)
01:28:40.565 : en:this entire chapter can be summed up with the word "ouch"
01:45:01.670 : en:see I told you this movie was all about the cute and heartwarming stuff
01:51:44.114 : en:February 1999: Murder Speculation (Second Half)/Seventh Heaven
01:57:34.214 : en:Well, time to say goodbye. The exact same faggots who started this project have now ended it, almost two
years later.
02:01:10.263 : en:So long, and see you on the blurays~

related torrents

Torrent name

health leech seeds Size
 


comments (0)

Main Menu