Classic

Turina Sanlucar de Barrameda, Danzas Fantasticas Alicia de Larocha FLAC

  • Download 5x Faster
  • Download torrent
  • Direct Download
  • Rate this torrent +  |  -

Torrent info

Name:Turina Sanlucar de Barrameda, Danzas Fantasticas Alicia de Larocha FLAC

Total Size: 288.18 MB

Magnet: Magnet Link

Seeds: 0

Leechers: 9

Stream: Watch Online @ Movie4u

Last Updated: 2010-09-15 06:13:29 (Update Now)

Torrent added: 2008-09-02 03:36:24



VPN For Torrents

Torrent Files List


CDImage (flac).cue (Size: 288.18 MB) (Files: 16)

 CDImage (flac).cue

1.33 KB

 CDImage (wav).cue

1.33 KB

 CDImage.flac

176.09 MB

 EAC.log

2.08 KB

 Read me.txt

0.51 KB

 Scans

  Booklet 001.png

12.62 MB

  Booklet 002.png

10.72 MB

  Booklet 003.png

11.57 MB

  Booklet 004.png

11.63 MB

  Booklet 005.png

11.85 MB

  Booklet 006.png

11.33 MB

  Booklet 007.png

11.99 MB

  Booklet 008.png

10.00 MB

  Disc.png

10.25 MB

  Tray.png

10.12 MB

 Torrent downloaded from Demonoid.com.txt

0.05 KB
 

Announce URL: http://inferno.demonoid.com:3394/announce

Torrent description

JOAQUÍN TURINA (1882-1949)

Sanlúcar de Barrameda, Sonata pintoresca para piano
1. I En la torre del castillo
2. II Siluetas de la calzada
3. III La playa
IV Los pescadores en Bajo do Guía

Danzas Fantásticas
4. Exaltación
5. Ensueño
6. Orgía

7. Zapateado (de "Danzas Andaluzas")
8. Sacromonte (de "Danzas Gitanas")

Alicia de Larocha, piano

Exact Audio Copy V0.99 prebeta 4 from 23. January 2008

EAC extraction logfile from 18. August 2008, 15:51

Alicia de Larrocha / Turina - Obras para piano

Used drive : HL-DT-STDVD-ROM GDR8163B Adapter: 1 ID: 1

Read mode : Secure
Utilize accurate stream : Yes
Defeat audio cache : Yes
Make use of C2 pointers : No

Read offset correction : 102
Overread into Lead-In and Lead-Out : No
Fill up missing offset samples with silence : Yes
Delete leading and trailing silent blocks : No
Null samples used in CRC calculations : Yes
Used interface : Installed external ASPI interface

Used output format : Internal WAV Routines
Sample format : 44.100 Hz; 16 Bit; Stereo


TOC of the extracted CD

Track | Start | Length | Start sector | End sector
---------------------------------------------------------
1 | 0:00.32 | 6:27.15 | 32 | 29071
2 | 6:27.47 | 3:21.33 | 29072 | 44179
3 | 9:49.05 | 11:34.72 | 44180 | 96301
4 | 21:24.02 | 4:46.73 | 96302 | 117824
5 | 26:11.00 | 6:12.07 | 117825 | 145731
6 | 32:23.07 | 4:46.08 | 145732 | 167189
7 | 37:09.15 | 4:09.10 | 167190 | 185874
8 | 41:18.25 | 1:57.45 | 185875 | 194694


Range status and errors

Selected range

Filename D:\Classical\Turina Sanlucar de Barrameda, Danzas Fantasticas - Alicia de Larocha\CDImage.wav

Peak level 86.6 %
Range quality 100.0 %
Test CRC 9B64FDC7
Copy CRC 9B64FDC7
Copy OK

No errors occurred


AccurateRip summary

Track 1 not present in database
Track 2 not present in database
Track 3 not present in database
Track 4 not present in database
Track 5 not present in database
Track 6 not present in database
Track 7 not present in database
Track 8 not present in database

None of the tracks are present in the AccurateRip database

End of status report

related torrents

Torrent name

health leech seeds Size
 


comments (0)

Main Menu