Prison Break

prison break 401 hdtv lol avi

  • Download 5x Faster
  • Download torrent
  • Direct Download
  • Rate this torrent +  |  -
prison break 401 hdtv lol avi

Anonymous and Free Direct Download 300GB+


Torrent info

Name:prison break 401 hdtv lol avi

Total Size: 349.78 MB

Magnet: Magnet Link

Seeds: 0

Leechers: 0

Stream: Watch Online @ Movie4u

Last Updated: 2015-10-30 14:44:10 (Update Now)

Torrent added: 2008-09-02 00:38:13



VPN For Torrents

Torrent Files List


prison.break.401.hdtv-lol.avi (Size: 349.78 MB) (Files: 1)

 prison.break.401.hdtv-lol.avi

349.78 MB
 

tracker

leech seeds
 

Torrent description

Format : AVI
Format/Info : Audio Video Interleave
File size : 6.89 MiB
Duration : 1mn 0s
Overall bit rate : 964 Kbps
Writing application : VirtualDubMod 1.5.10.2 (build 2540/release)
Writing library : VirtualDubMod build 2540/release

Video
Format : MPEG-4 Visual
Format profile : Streaming [email protected]
Format settings, BVOP : Yes
Format settings, QPel : No
Format settings, GMC : No warppoints
Format settings, Matrix : Default
Muxing mode : Packet Bitstream
Codec ID : XVID
Codec ID/Hint : XviD
Duration : 1mn 0s
Bit rate : 821 Kbps
Width : 624 pixels
Height : 352 pixels
Display aspect ratio : 16/9
Frame rate : 23.976 fps
Resolution : 8 bits
Colorimetry : 4:2:0
Scan type : Progressive
Bits/(Pixel*Frame) : 0.156
Stream size : 5.87 MiB (85%)
Writing library : XviD 1.1.2 (UTC 2006-11-01)

Audio
Format : MPEG Audio
Format version : Version 1
Format profile : Layer 3
Codec ID : 55
Codec ID/Hint : MP3
Duration : 1mn 0s
Bit rate mode : Variable
Bit rate : 129 Kbps
Channel(s) : 2 channels
Sampling rate : 48.0 KHz
Resolution : 16 bits
Stream size : 944 KiB (13%)
Alignment : Aligned on interleaves
Interleave, duration : 24 ms (0.58 video frame)
Interleave, preload duration : 525 ms

Retirado do Sample

related torrents

Torrent name

health leech seeds Size
 


comments (0)

Main Menu