Drama

Aviator 2004DvDrip DemonukNIKONRG

  • Download 5x Faster
  • Download torrent
  • Direct Download
  • Rate this torrent +  |  -
Aviator 2004DvDrip DemonukNIKONRG

Free and Direct Download with Usenet 300GB+ free


Torrent info

Name:Aviator 2004DvDrip DemonukNIKONRG

Total Size: 700.52 MB

Magnet: Magnet Link

Seeds: 19

Leechers: 16

Stream: Watch Online @ Movie4u

Last Updated: 2010-12-16 19:22:27 (Update Now)

Torrent added: 2008-09-01 09:38:52




Torrent Files List


AVIATOR.avi (Size: 700.52 MB) (Files: 3)

 AVIATOR.avi

700.52 MB

 The Aviator.info.txt

1.19 KB

 Torrent downloaded from Demonoid.com.txt

0.05 KB
 

Announce URL: http://inferno.demonoid.com:3394/announce

Torrent description

The Aviator-[2004][DvDrip]-Demonuk[NIKONRG]
__________________
MOVIE INFORMATION
__________________
TITLE.............:The Aviator
DIRECTOR..........:Martin Scorsese
YEAR..............: 2004
RUNTIME...........:2h 43mn
GENRE.............: Biography | Drama
FORMAT.............:AVI
Format/Info.........:Audio Video Interleave
File size..........:701 MiB
Overal bit rate....600 Kbps
SOURCE............:PAL DVD
IMDB..............: http://www.imdb.com/title/tt0338751/
USER RATING............: 7.6/10 (61,606 votes)
__________________
VIDEO INFORMATION
__________________
Format: MPEG-4 Visual
Format profile: Streaming Video@L1
Format settings, BVOP: Yes
Format settings, QPel: No
Format settings, GMC: No warppoints
Format settings, Matrix: Custom
Codec ID: XVID
Codec ID/Hint: XviD
Duration: 2h 43mn
Bit rate: 478 Kbps
Width: 544 pixels
Height: 240 pixels
Display aspect ratio: 2.25
Frame rate: 25.000 fps
Resolution: 8 bits
Colorimetry: 4:2:0
Scan type: Progressive
Bits/(Pixel*Frame):0.147
Stream size: 558 MiB (80%)

__________________
AUDIO INFORMATION
__________________
Format: MPEG Audio
Format version: Version 1
Format profile: Layer 3
Codec ID: 55
Codec ID/Hint: MP3
Duration: 2h 43mn
Bit rate mode: Variable
Bit rate: 109 Kbps
Minimum bit rate: 128 Kbps
Channel(s): 2 channels
Sampling rate: 48.0 KHz
Resolution: 16 bits
Stream size: 127 MiB (18%)
Writing library: LAME3.97
Encoding settings: ABR

__________________
MAIN CAST
__________________
Leonardo DiCaprio ... Howard Hughes
Cate Blanchett ... Katharine Hepburn
Kate Beckinsale ... Ava Gardner
John C. Reilly ... Noah Dietrich
Alec Baldwin ... Juan Trippe
Alan Alda ... Senator Ralph Owen Brewster
Ian Holm ... Professor Fitz

__________________
PLOT OUTLINE
__________________
Phenomenal public success contrasts with private behaviors close to madness: Howard Hughes from
the late 1920s to the late 1940s, from "Hells Angels" (spending a fortune on details) through the only
flight of the Hercules, a huge, money-losing transport plane. Along the way, the public Hughes sees
the big picture - in movies and in aviation, building TWA and leading it through a fight with
Pan Am and the US Senate. In private, phobias and compulsions threaten him with self-imposed
solitary confinement. How long can his imagination, drive, and the sympathies of Katharine Hepburn,
Ava Gardner, and the men who work for him stave off these internal disorders?
__________________
Info hash:5C9C0B23C18BBA5B0DC6448EE12141BE7162AD47
Tracker announce: http://inferno.demonoid.com:3393/announce
Tracker announce: http://open.tracker.thepiratebay.org:80/announce
Tracker Scrape: http://inferno.demonoid.com:3393/scrape

__________________
Contents of download:

The Aviator-[2002][DvDrip]-Demonuk[NIKONRG].avi (701 MiB)
The Aviator.info.txt (1.18Kb)
Torrent downloaded from Demonoid.com.txt (47bytes)
___________________________________________________________________
> For Detailed Information on New Releases and Popular Request Click Here


^>>>>>>>>>>>>>>>>>>>>>>>>>>>>>>>>>>>>>>>>>>>>>>>>>>>>>>>>>>>>>>>>>>.^
^......................................................................................................@....................@......@.@@@.@...............^
^............@@...........@....@....@.......@...............................................@..................@......@................@...........^
^............@.@..........@...........@......@.......@@@@........ @..@.@.@......@...............@.......@..................@.........^
^............@..@.........@....@....@.....@....@..............@.....@@.........@......@............@........@...................@........^
^............@...@........@....@....@....@....@................@....@.............@.......@........@..........@...................@........^
^............@....@.......@....@....@...@....@..................@...@.............@.........@.....@...........@..................@.........^
^............@.....@......@....@....@@......@....................@..@.............@...........@@..............@@@@@@@............^
^............@......@.....@....@....@@......@....................@..@.............@.........@.....@...........@..............................^
^............@.......@....@....@....@...@....@...................@..@.............@........@.........@........@..............................^
^............@........@...@....@....@....@....@.................@...@.............@......@............@.......@..............................^
^............@.........@..@....@....@.....@....@...............@....@.............@....@................@.....@..............................^
^............@..........@.@....@....@......@....@.............@.....@.............@...@...................@...@..............................^
^............@...........@@....@....@.......@.....@.@.@..@......@.............@..@.....................@..@..............................^
^<<<<<<<<<<<<<<<<<<<<<<<<<<<<<<<<<<<<<<<<<<<<<<<<<<<<<<<<<<<<<<<<<<.^

related torrents

Torrent name

health leech seeds Size

Sahara 2004DvDrip axez

0 0 698.54 MB 0
 

comments (0)

Main Menu