Mystery

The X Files I Want to Believe (2008) R5 Divx {1337x} Noir

  • Download 5x Faster
  • Download torrent
  • Direct Download
  • Rate this torrent +  |  -

Torrent info

Name:The X Files I Want to Believe (2008) R5 Divx {1337x} Noir

Total Size: 726.44 MB

Magnet: Magnet Link

Seeds: 1

Leechers: 13

Stream: Watch Online @ Movie4u

Last Updated: 2010-09-08 05:40:32 (Update Now)

Torrent added: 2008-08-30 22:20:04



VPN For Torrents

Torrent Files List


1337x.Org.txt (Size: 726.44 MB) (Files: 3)

 1337x.Org.txt

0.03 KB

 Noir.nfo

5.47 KB

 The X Files I Want to Believe (2008) [R5] [Divx] {1337x}-Noir.avi

726.44 MB
 

Announce URL: http://genesis.1337x.org:1337/announce

Torrent description

The X Files I Want to Believe (2008) R5 Divx {1337x} Noir preview 0

Screenshots

The X Files I Want to Believe (2008) R5 Divx {1337x} Noir preview 1

The X Files I Want to Believe (2008) R5 Divx {1337x} Noir preview 2

The X Files I Want to Believe (2008) R5 Divx {1337x} Noir preview 3

[code]
______________________________________________________________
??????
??????? ????
???????? ??????
????????? ???????????
??????? ???????????? ?????????????
????????? ???????????????????????????
?????????? ???????????????????????????
??????????? ?????????????????????????????
?????????????????????????????????????????
?????????????????????????????????????????
?????????????????????????????????????????
?????????????????????????????????????????
?????????????????????????????????????????
???????? ?????????????????????????????????
????????? ????????????????????????????
????????? ????????????????? ????????
????????? ???????????????? ????????
????????? ?????????????? ????????
????????? ?????
______________________________________________________________



*****************************************
* The X Files: I Want to Believe (2008) *
*****************************************

________________________
General Information |
________________________|
_______________________________________________________________
Type : Movie |
Format : AVI |
Format/Info : Audio Video Interleave |
File size : 718 MiB |
Duration : 1h 39mn |
Subtitles : |
Source : Dvd R5 |
Genre : Drama | Mystery |
IMDB Link : http://www.imdb.com/title/tt0443701/ |
Rating : 6.4/10 |
_______________________________________________________________|
Video
Format : MPEG-4 Visual
Format settings, BVOP : Yes
Format settings, QPel : Yes
Format settings, GMC : 2 warppoints
Format settings, Matrix : Default
Codec ID : DX50/60
Codec ID/Hint : DivX 5
Duration : 1h 40mn
Bit rate : 877 Kbps
Width : 688 pixels
Height : 288 pixels
Display aspect ratio : 2.35
Frame rate : 25.000 fps
Resolution : 24 bits
Colorimetry : 4:2:0
Scan type : Progressive
Bits/(Pixel*Frame) : 0.177
Stream size : 628 MiB (86%)
_______________________________________________________________
Audio
Format : MPEG Audio
Format version : Version 1
Format profile : Layer 3
Codec ID : 55
Codec ID/Hint : MP3
Duration : 1h 40mn
Bit rate mode : Constant
Bit rate : 128 Kbps
Minimum bit rate : 128 Kbps
Channel(s) : 2 channels
Sampling rate : 48.0 KHz
Resolution : 16 bits
Stream size : 91.6 MiB (13%)
Alignment : Aligned on interleaves
Interleave, duration : 40 ms (1.00 video frame)
Interleave, preload duration : 504 ms
Writing library : LAME3.97
Encoding settings : CBR
_______________________________________________________________
________________
Description |
________________|
_______________________________________________________________
When a group of women are abducted in the wintry hills of |
rural Virginia, the only clues to their disappearance are |
the grotesque human remains that begin to turn up in snow |
banks along the highway. With officials desperate for any |
lead, a disgraced priest\'s questionable visions send local |
police on a wild goose chase and straight to a bizarre secret |
medical experiment that may or may not be connected to the |
women\'s disappearance. Its a case right out of The X-Files. |
But the FBI closed down its investigations into the paranormal |
years ago. And the best team for the job is ex-agents Fox |
Mulder and Dr. Dana Scully, who have no desire to revisit |
their dark past. Still, the truth of these horrific crimes |
is out there somewhere...and it will take Mulder and Scully |
to find it! |
_______________________________________________________________|

___________________
Post Information |
___________________|
________________________________
Posted by............: Noir |
Posted on............: 8/30/2008|
________________________________|
[/code]
The X Files I Want to Believe (2008) R5 Divx {1337x} Noir preview 4

The X Files I Want to Believe (2008) R5 Divx {1337x} Noir preview 5

related torrents

Torrent name

health leech seeds Size
 


comments (0)

Main Menu