Action

Dark Blue 2002DvDrip DemonukNIKONRG

  • Download 5x Faster
  • Download torrent
  • Direct Download
  • Rate this torrent +  |  -
Dark Blue 2002DvDrip DemonukNIKONRG

Anonymous and Direct Download 300GB+ free


Torrent info

Name:Dark Blue 2002DvDrip DemonukNIKONRG

Total Size: 701.68 MB

Magnet: Magnet Link

Seeds: 0

Leechers: 0

Stream: Watch Online @ Movie4u

Last Updated: 2012-05-06 13:48:13 (Update Now)

Torrent added: 2008-08-30 15:39:26




Torrent Files List


DARK BLUE.avi (Size: 701.68 MB) (Files: 3)

 DARK BLUE.avi

701.67 MB

 DARK BLUE.info.txt

1.83 KB

 Torrent downloaded from Demonoid.com.txt

0.05 KB
 

Announce URL:

Torrent description

DARK BLUE-[2002][DvDrip]-Demonuk[NIKONRG]
__________________
MOVIE INFORMATION
__________________
TITLE.............:DARK BLUE
DIRECTOR..........:Ron Shelton
YEAR..............: 2002
RUNTIME...........:1h 53mn
GENRE.............: Action | Crime | Drama | Thriller
FORMAT.............:AVI
Format/Info.........:Audio Video Interleave
File size..........:702MiB
Overal bit rate....864 Kbps
SOURCE............:PAL DVD
IMDB..............: http://www.imdb.com/title/tt0279331/
USER RATING............: 6.6/10 (8,317 votes)
__________________
VIDEO INFORMATION
__________________
Format: MPEG-4 Visual
Format profile: Streaming [email protected]
Format settings, BVOP: Yes
Format settings, QPel: No
Format settings, GMC: No warppoints
Format settings, Matrix: Custom
Codec ID: XVID
Codec ID/Hint: XviD
Duration: 1h 53mn
Bit rate: 737 Kbps
Width: 608 pixels
Height: 256 pixels
Display aspect ratio:2.35
Frame rate: 25.000 fps
Resolution: 8 bits
Colorimetry: 4:2:0
Scan type: Progressive
Bits/(Pixel*Frame):0.189
Stream size: 599 MiB (85%)

__________________
AUDIO INFORMATION
__________________
Format: MPEG Audio
Format version: Version 1
Format profile: Layer 3
Codec ID: 55
Codec ID/Hint: MP3
Duration: 1h 53mn
Bit rate mode: Variable
Bit rate: 113 Kbps
Minimum bit rate: 128 Kbps
Channel(s): 2 channels
Sampling rate: 48.0 KHz
Resolution: 16 bits
Stream size: 92.1 MiB (13%)
Writing library: LAME3.97
Encoding settings: ABR

__________________
MAIN CAST
__________________
Kurt Russell ... Eldon Perry
Scott Speedman ... Bobby Keough
Michael Michele ... Beth Williamson
Brendan Gleeson ... Jack Van Meter
Ving Rhames ... Arthur Holland


__________________
PLOT OUTLINE
__________________
Set in the Los Angeles Police Department in April 1992, Dark Blue is a dramatic thriller that takes place
just days before the acquittal of four white officers in the beating of black motorist Rodney King
and the subsequent L.A. riots. In this racially-charged climate,the LAPD's elite Special Investigations
Squad (SIS) is assigned a high-profile quadruple homicide. As they work the case, veteran detective
Eldon Perry, known for his tough street tactics and fiery temper, tutors SIS rookie Bobby Keough in the
grim realities of police intimidation and corruption. Meanwhile, Assistant Chief Holland, the only man
in the department willing to stand up to the SIS, threatens to end Perry's brand of singlehanded
"justice" on the Los Angeles streets. While navigating through the tumultuous neighborhoods of South
Central L.A., Perry and Keough must track down cold-blooded killers and face their own demons,
which prove to be more ruthless than the criminals they pursue.
__________________
Info hash:7F85723656677BF7365EE808DF95D220D962757D
Tracker announce: http://inferno.demonoid.com:3393/announce
Tracker announce: http://open.tracker.thepiratebay.org:80/announce
Tracker Scrape: http://inferno.demonoid.com:3393/scrape

__________________
Contents of download:

DARK BLUE-[2002][DvDrip]-Demonuk[NIKONRG].avi (702MB)
DARK BLUE.info.txt (1.82Kb)
Torrent downloaded from Demonoid.com.txt (47bytes)
___________________________________________________________________
> For Detailed Information on New Releases and Popular Request Click Here


^>>>>>>>>>>>>>>>>>>>>>>>>>>>>>>>>>>>>>>>>>>>>>>>>>>>>>>>>>>>>>>>>>>.^
^......................................................................................................@....................@......@.@@@.@...............^
^............@@...........@....@....@.......@...............................................@..................@......@................@...........^
^............@.@..........@...........@......@.......@@@@........ @..@.@.@......@...............@.......@..................@.........^
^............@..@.........@....@....@.....@....@..............@.....@@.........@......@............@........@...................@........^
^............@...@........@....@....@....@....@................@....@.............@.......@........@..........@...................@........^
^............@....@.......@....@....@...@....@..................@...@.............@.........@.....@...........@..................@.........^
^............@.....@......@....@....@@......@....................@..@.............@...........@@..............@@@@@@@............^
^............@......@.....@....@....@@......@....................@..@.............@.........@.....@...........@..............................^
^............@.......@....@....@....@...@....@...................@..@.............@........@.........@........@..............................^
^............@........@...@....@....@....@....@.................@...@.............@......@............@.......@..............................^
^............@.........@..@....@....@.....@....@...............@....@.............@....@................@.....@..............................^
^............@..........@.@....@....@......@....@.............@.....@.............@...@...................@...@..............................^
^............@...........@@....@....@.......@.....@.@.@..@......@.............@..@.....................@..@..............................^
^<<<<<<<<<<<<<<<<<<<<<<<<<<<<<<<<<<<<<<<<<<<<<<<<<<<<<<<<<<<<<<<<<<.^

related torrents

Torrent name

health leech seeds Size
 


comments (0)

Main Menu