Fantasy

Casshern

  • Download 5x Faster
  • Download torrent
  • Direct Download
  • Rate this torrent +  |  -
Casshern

Anonymous and Free Direct Download 300GB+


Torrent info

Name:Casshern

Total Size: 1.37 GB

Magnet: Magnet Link

Seeds: 1

Leechers: 1

Stream: Watch Online @ Movie4u

Last Updated: 2010-06-04 02:16:42 (Update Now)

Torrent added: 2008-08-29 03:36:20

Alternatives:Casshern Torrents



VPN For Torrents

Torrent Files List


casshern.cd1.AE.avi (Size: 1.37 GB) (Files: 2)

 casshern.cd1.AE.avi

700.29 MB

 casshern.cd2.AE.avi

700.39 MB
 

Announce URL: http://wreckingcrew.zapto.org/announce.php

Torrent description



Casshern

Nach einem 50 Jahre w?hrenden Krieg besiegt die Grossasiatische Republik schlie?lich die Europ?ische Union,
vereinzelte Rebellen ausgenommen. Doch viel mehr als ein umk?mpftes Schlachtfeld ist nicht mehr ?brig
(andere L?nder bzw. Kontinente werden nicht erw?hnt).
Die ?berlebenden sind gro?teils todkrank und dringend muss eine L?sung f?r deren Probleme her.
Dem Forscher Dr. Azuma gelingt dabei der Durchbruch. Mithilfe von Gentechnik ist er in der Lage,
menschliche Ersatzteile aus sogenannten Neo-Zellen zu erschaffen erkrankte Organe k?nnten ohne Spender ersetzt werden.
Als die Regierung die Finanzierung seiner Projekte verweigert,
mit denen er nicht zuletzt versucht seine sterbende Frau zu retten,
nimmt er verzweifelt die Geldmittel einer milit?rischen Organisation an.
Diese plant seine Idee aufzugreifen und Supersoldaten zu generieren.

W?hrenddessen treibt es seinen rebellischen Sohn Tetsuya, gegen den Willen seines Vaters,
als Freiwilligen zum Milit?rdienst an die k?mpfende Front,
von wo er nach einer nicht definierten Zeit als Leichnam zu seinen trauernden Eltern sowie seiner traumatisierten Verlobten Luna zur?ckkehrt.
Kurz vor der Beisetzung Tetsuyas kommt es in dem fremdfinanzierten Forschungszentrum zu einem Unfall,
durch den aus der erschaffenen genetischen N?hrl?sung mutierte Neo-Menschen entstehen.
Nach einem missgl?ckten Versuch, diese St?rf?lle brutal zu beseitigen, schw?ren die fl?chtenden,
verbliebenden Vertreter der neuen Rasse, die eher zuf?llig auf Midori Azuma treffen und diese kurzerhand mitnehmen,
in einer vom langen Krieg gezeichneten und grtenteils entv?lkerten urbanen Landschaft Rache an der Menschheit.
Mit einer Armee von Kampfmaschinen wollen sie die Bev?lkerung der Erde unterwerfen und vernichten.

Zeitlich versetzt taucht der zu allem entschlossene Dr. Azuma den leblosen K?rper seines Sohnes in die gleiche N?hrl?sung,
aus der zuvor jene Neo-Menschen emporstiegen. Es gelingt ihm zur Freude der anwesenden Luna seinen Sohn wiederzubeleben
und ihn heimlich aus der Hochsicherheitszone zu transportieren.
Bei Dr. Kozuki, einem befreundeten Wissenschaftler Azumas,
findet der auferstandene Soldat schlie?lich Unterschlupf.
Des Weiteren wird er hier mit einer hochmodernen, neuartigen R?stung ausgestattet,
die seinen K?rper stabilisiert und so erh?lt, ihn aber auch gleichzeitig zu einem gnadenlosen K?mpfer werden l?sst,
der mit ?bernat?rlichen Kr?ften ausgestattet, den Kampf gegen die Maschinen und Neo-Menschen aufnimmt.


Allgemein
Vollst?ndiger Name : C:cassherncasshern.cd1.AE.avi
Format : AVI
Format/Info : Audio Video Interleave
Dateigre : 700 MiB
Duration : 1h 11min
Gesamte Bitrate : 1369 Kbps
Verwendetes Programm : VirtualDubMod 1.5.4.1 (build 2178/release)
verwendete Encoder-Bibliothek : VirtualDubMod build 2178/release
IAS1 : Deutsch / Deutsch

Video
Format : MPEG-4 Visual
Format profile : Streaming [email protected]
Format settings, BVOP : Ja
Format settings, QPel : Nein
Format settings, GMC : No warpoints
Format settings, Matrix : Custom
Codec ID : XVID
Codec ID/Hint : XviD
Duration : 1h 11min
Bitrate : 914 Kbps
Breite : 640 Pixel
H?he : 272 Pixel
Bildseitenverh?ltnis : 2.35
Bildwiederholungsrate : 25.000 FPS
Aufl?sung : 8 bits
Colorimetry : 4:2:0
Scan type : Progressive
Bits/(Pixel*Frame) : 0.210
Stream size : 468 MiB
verwendete Encoder-Bibliothek : XviD 1.1.0 (UTC 2005-11-22)

Audio
Format : AC-3
Format/Info : Audio Coding 3
Codec ID : 2000
Duration : 1h 11min
Bitraten-Modus : Constant
Bitrate : 448 Kbps
Kan?le : 6 Kan?le
Channel positions : Front: L C R, Rear: L R, LFE
Samplingrate : 48.0 KHz
Stream size : 229 MiB


Allgemein
Vollst?ndiger Name : C:cassherncasshern.cd2.AE.avi
Format : AVI
Format/Info : Audio Video Interleave
Dateigre : 700 MiB
Duration : 1h 10min
Gesamte Bitrate : 1389 Kbps
Verwendetes Programm : VirtualDubMod 1.5.4.1 (build 2178/release)
verwendete Encoder-Bibliothek : VirtualDubMod build 2178/release
IAS1 : Deutsch / Deutsch

Video
Format : MPEG-4 Visual
Format profile : Streaming [email protected]
Format settings, BVOP : Ja
Format settings, QPel : Nein
Format settings, GMC : No warpoints
Format settings, Matrix : Custom
Codec ID : XVID
Codec ID/Hint : XviD
Duration : 1h 10min
Bitrate : 936 Kbps
Breite : 640 Pixel
H?he : 272 Pixel
Bildseitenverh?ltnis : 2.35
Bildwiederholungsrate : 25.000 FPS
Aufl?sung : 8 bits
Colorimetry : 4:2:0
Scan type : Progressive
Bits/(Pixel*Frame) : 0.215
Stream size : 472 MiB
verwendete Encoder-Bibliothek : XviD 1.1.0 (UTC 2005-11-22)

Audio
Format : AC-3
Format/Info : Audio Coding 3
Codec ID : 2000
Duration : 1h 10min
Bitraten-Modus : Constant
Bitrate : 448 Kbps
Kan?le : 6 Kan?le
Channel positions : Front: L C R, Rear: L R, LFE
Samplingrate : 48.0 KHz
Video0 Verz?gerung : 24ms
Stream size : 225 MiB

related torrents

Torrent name

health leech seeds Size
 


comments (0)

Main Menu