Other

Planet 51 Dvd

  • Download 5x Faster
  • Download torrent
  • Direct Download
  • Rate this torrent +  |  -
Planet 51 Dvd

Anonymous and free Direct Download 300GB+


Torrent info

Name:Planet 51 Dvd

Total Size: 700.61 MB

Magnet: Magnet Link

Seeds: 0

Leechers: 0

Stream: Watch Online @ Movie4u

Last Updated: 2009-12-12 15:02:28 (Update Now)

Torrent added: 2009-12-12 15:02:28



VPN For Torrents

Torrent Files List


 

Announce URL: http://tracker.thepiratebay.org/announce

Torrent description

Thanks MYP2P.CA YOU GUYS ROCK!

Video
ID : 0
Format : MPEG-4 Visual
Format profile : [email protected]
Format settings, BVOP : No
Format settings, QPel : No
Format settings, GMC : No warppoints
Format settings, Matrix : Default (MPEG)
Codec ID : XVID
Codec ID/Hint : XviD
Duration : 1h 20mn
Bit rate : 1 084 Kbps
Width : 640 pixels
Height : 272 pixels
Display aspect ratio : 2.35:1
Frame rate : 25.000 fps
Resolution : 24 bits
Colorimetry : 4:2:0
Scan type : Progressive
Bits/(Pixel*Frame) : 0.249
Stream size : 624 MiB (89%)
Writing library : XviD 1.2.1 (UTC 2008-12-04)

Audio
ID : 1
Format : MPEG Audio
Format version : Version 1
Format profile : Layer 3
Format_Settings_Mode : Joint stereo / MS Stereo
Codec ID : 55
Codec ID/Hint : MP3
Duration : 1h 20mn
Bit rate mode : Constant
Bit rate : 32.0 Kbps
Channel(s) : 2 channels
Sampling rate : 48.0 KHz
Resolution : 16 bits
Stream size : 69.1 MiB (10%)
Alignment : Aligned on interleaves
Interleave, duration : 24 ms (0.60 video frame)
Interleave, preload duration : 134 ms
Writing library : LAME3.99 (alpha)

related torrents

Torrent name

health leech seeds Size

Planet 51 Dvd Rip

1 0 705.78 MB 0

[DVD FULL] Planet 51 iso

33 1 7.05 GB 0
 


comments (0)

Main Menu