Action

Backdraft 1991DvDrip DemonukNIKONRG

  • Download 5x Faster
  • Download torrent
  • Direct Download
  • Rate this torrent +  |  -
Backdraft 1991DvDrip DemonukNIKONRG

Anonymous and Free Direct Download


Torrent info

Name:Backdraft 1991DvDrip DemonukNIKONRG

Total Size: 700.01 MB

Magnet: Magnet Link

Seeds: 9

Leechers: 11

Stream: Watch Online @ Movie4u

Last Updated: 2010-12-22 03:59:38 (Update Now)

Torrent added: 2008-08-28 15:46:20



VPN For Torrents

Torrent Files List


BACKDRAFT.avi (Size: 700.01 MB) (Files: 3)

 BACKDRAFT.avi

700.01 MB

 Backdraft.info.txt

1.09 KB

 Torrent downloaded from Demonoid.com.txt

0.05 KB
 

Announce URL: http://inferno.demonoid.com:3393/announce

Torrent description

Backdraft-[1991][DvDrip]-Demonuk[NIKONRG]
__________________
MOVIE INFORMATION
__________________
TITLE.............:Backdraft
DIRECTOR..........:Ron Howard
YEAR..............: 1991
RUNTIME...........:2h 11mn
GENRE.............: Action | Drama | Mystery | Thriller
FORMAT.............:AVI
Format/Info.........:Audio Video Interleave
File size..........:700 MiB
Overal bit rate....744 Kbps
SOURCE............:PAL DVD
IMDB..............: http://www.imdb.com/title/tt0101393/
USER RATING............: 6.6/10 (22,608 votes)
__________________
VIDEO INFORMATION
__________________
Format: MPEG-4 Visual
Format profile: Streaming [email protected]
Format settings, BVOP: Yes
Format settings, QPel: No
Format settings, GMC: No warppoints
Format settings, Matrix: Custom
Codec ID: XVID
Codec ID/Hint: XviD
Duration: 2h 11mn
Bit rate: 613 Kbps
Width: 512 pixels
Height: 256 pixels
Display aspect ratio:2.000
Frame rate: 25.000 fps
Resolution: 8 bits
Colorimetry: 4:2:0
Scan type: Progressive
Bits/(Pixel*Frame):0.187
Stream size: 577 MiB (82%)

__________________
AUDIO INFORMATION
__________________
Format: MPEG Audio
Format version: Version 1
Format profile: Layer 3
Codec ID: 55
Codec ID/Hint: MP3
Duration: 2h 11mn
Bit rate mode: Variable
Bit rate: 118 Kbps
Minimum bit rate: 128 Kbps
Channel(s): 2 channels
Sampling rate: 48.0 KHz
Resolution: 16 bits
Stream size: 111 MiB (16%)
Writing library: LAME3.97
Encoding settings: ABR

__________________
MAIN CAST
__________________
Kurt Russell ... Stephen 'Bull' McCaffrey / Dennis McCaffrey
William Baldwin ... Brian McCaffrey
Robert De Niro ... Donald 'Shadow' Rimgale
Donald Sutherland ... Ronald Bartel
Jennifer Jason Leigh ... Jennifer Vaitkus
Scott Glenn ... John 'Axe' Adcox


__________________
PLOT OUTLINE
__________________
A rookie firefighter tries to earn the respect of his older brother and other firefighters while taking
part in an investigation of a string of arson/murders. This detailed look into the duties and private
lives of firemen naturally features widespread pyrotechnics and special effects.
__________________
Info hash:0EA16E31CE3A19ED7555BD07631A7A68C2A5A48A
Tracker announce: http://inferno.demonoid.com:3392/announce
Tracker announce: http://open.tracker.thepiratebay.org:80/announce
Tracker Scrape: http://inferno.demonoid.com:3392/scrape

__________________
Contents of download:

Backdraft-[1991][DvDrip]-Demonuk[NIKONRG].avi (699MB)
Backdraft.info.txt (1.09Kb)
Torrent downloaded from Demonoid.com.txt (47bytes)
___________________________________________________________________
> For Detailed Information on New Releases and Popular Request Click Here


^>>>>>>>>>>>>>>>>>>>>>>>>>>>>>>>>>>>>>>>>>>>>>>>>>>>>>>>>>>>>>>>>>>.^
^.......................................[email protected][email protected]@[email protected]@@[email protected]^
^[email protected]@[email protected]@[email protected]@[email protected][email protected]@[email protected]^
^[email protected]@[email protected]@[email protected]@@@@........ @[email protected]@[email protected]@[email protected]@[email protected]^
^[email protected]@[email protected]@[email protected]@[email protected]@[email protected]@[email protected]@[email protected]@[email protected]^
^[email protected]@[email protected]@[email protected]@[email protected]@[email protected]@[email protected]@[email protected]@........^
^[email protected]@[email protected]@[email protected]@[email protected]@[email protected]@[email protected]@[email protected]@.........^
^[email protected]@[email protected]@[email protected]@[email protected]@[email protected]@[email protected]@[email protected]@@@@@@............^
^[email protected]@[email protected]@[email protected]@[email protected]@[email protected]@[email protected]@[email protected]^
^[email protected]@[email protected]@[email protected]@[email protected]@[email protected]@[email protected]@[email protected]^
^[email protected]@[email protected]@[email protected]@[email protected]@[email protected]@[email protected]@[email protected]^
^[email protected]@[email protected]@[email protected]@[email protected]@[email protected]@[email protected]@[email protected]^
^[email protected]@[email protected]@[email protected]@[email protected]@[email protected]@[email protected]@[email protected]^
^[email protected]@@[email protected]@[email protected]@[email protected]@[email protected]@[email protected]@[email protected]@..............................^
^<<<<<<<<<<<<<<<<<<<<<<<<<<<<<<<<<<<<<<<<<<<<<<<<<<<<<<<<<<<<<<<<<<.^




related torrents

Torrent name

health leech seeds Size
 


comments (0)

Main Menu