Anime - Other

Full Metal Panic! TSR OVAger sub

  • Download 5x Faster
  • Download torrent
  • Direct Download
  • Rate this torrent +  |  -
Full Metal Panic! TSR OVAger sub

Anonymous and Direct Download 300GB+ free


Torrent info

Name:Full Metal Panic! TSR OVAger sub

Total Size: 232.88 MB

Magnet: Magnet Link

Seeds: 0

Leechers: 0

Stream: Watch Online @ Movie4u

Last Updated: 2016-01-11 17:43:13 (Update Now)

Torrent added: 2008-08-28 15:33:49




Torrent Files List


[BKF]Full_Metal_Panic!_TSR_-_OVA_[AA96F983].avi (Size: 232.88 MB) (Files: 1)

 [BKF]Full_Metal_Panic!_TSR_-_OVA_[AA96F983].avi

232.88 MB
 

tracker

leech seeds
 

Torrent description

Kurzbeschreibung

Das Leben des Brian...eeeh Cäptn. Testarossa vom Schiff Tuatha de Danaan.
Die Ova beschreibt ein Tag des Lebens unseres Cäpts. aus der erfolgreichen Serie Full Metal Panic!. Die Ova spielt kurz nach der TSR Staffel.
Angefangen beim Aufstehen, wo sie noch verschlafen unseren Sousuke anbaggert. Dann die "Morgentoilette" und das Gespräch mit einzelnen Mannschaftsmitgliedern (Melissa,Clouzot,Kalinin,Weber,Mardukas,Sousuke).
Wir erfahren was Testa nicht so gerne mag. Wem sie gerne mal küssen möchte und noch einiges mehr.
Natürlich gibst auch wieder einige Anspielungen vergangender Staffeln. Auf eine Anspielung auf die neue kommende Staffel wartet man leider vergebens.

Video
Format : MPEG-4 Visual
Format profile : Streaming [email protected]
Format settings, BVOP : Ja
Format settings, QPel : Nein
Format settings, GMC : No warppoints
Format settings, Matrix : Default
Muxing mode : Packet Bitstream
Codec ID : DX50
Codec ID/Hint : DivX 5
Duration : 30min
Bitrate : 920 Kbps
Breite : 704 Pixel
Höhe : 396 Pixel
Bildseitenverhältnis : 16/9
Bildwiederholungsrate : 23.976 FPS
Auflösung : 8 bits
Colorimetry : 4:2:0
Scan type : Progressive
Bits/(Pixel*Frame) : 0.138
Stream size : 203 MiB (87)
verwendete Encoder-Bibliothek : XviD 1.1.0 (UTC 2005-11-22)

Audio
Format : MPEG Audio
Format version : Version 1
Format profile : Layer 3
Codec ID : 55
Codec ID/Hint : MP3
Duration : 30min
Bitraten-Modus : Constant
Bitrate : 128 Kbps
Kanäle : 2 Kanäle
Samplingrate : 48.0 KHz
Auflösung : 16 bits
Stream size : 28.1 MiB (12)
Alignment : Aligned on interleaves
Interleave, duration : 42 ms (1.00 video frame)
Interleave, preload duration : 504 ms


Unsere URL http://h-n-h.ath.cx


related torrents

Torrent name

health leech seeds Size
 


comments (0)

Main Menu