Anime - Other

Perfect Girl German 2007 FS DVDRiP XviD Folgen 1 5

  • Download 5x Faster
  • Download torrent
  • Direct Download
  • Rate this torrent +  |  -
Perfect Girl German 2007 FS DVDRiP XviD Folgen 1 5

Anonymous and Direct Download 300GB+ free


Torrent info

Name:Perfect Girl German 2007 FS DVDRiP XviD Folgen 1 5

Total Size: 1.14 GB

Magnet: Magnet Link

Seeds: 2

Leechers: 0

Stream: Watch Online @ Movie4u

Last Updated: 2010-09-27 13:25:44 (Update Now)

Torrent added: 2008-08-28 06:33:26




Torrent Files List


Perfect.Girl.E01.Light.Shinning.in.the.Darkness.German.2007.ANiME.FS.DVDRiP.XviD-STARS (Size: 1.14 GB) (Files: 5)

 Perfect.Girl.E01.Light.Shinning.in.the.Darkness.German.2007.ANiME.FS.DVDRiP.XviD-STARS

  stars-perfect.girl.e01.xvid.avi

233.36 MB

 Perfect.Girl.E02.Capturing.the.Iron.Curtain.German.2007.ANiME.FS.DVDRiP.XviD-STARS

  stars-perfect.girl.e02.xvid.avi

233.35 MB

 Perfect.Girl.E03.Ah.my.Nostalgic.Dark.Youth.German.2007.ANiME.FS.DVDRiP.XviD-STARS

  stars-perfect.girl.e03.xvid.avi

233.38 MB

 Perfect.Girl.E04.Sunako.youre.Needed.German.2007.ANiME.FS.DVDRiP.XviD-STARS

  stars-perfect.girl.e04.xvid.avi

233.36 MB

 Perfect.Girl.E05.Feast.of.the.Beautiful.Creatures.German.2007.ANiME.FS.DVDRiP.XviD-STARS

  stars-perfect.girl.e05.xvid.avi

233.36 MB
 

Announce URL: http://h-n-h.ath.cx/announce.php

Torrent description

Video

Format : MPEG-4 Visual
Format profile : Streaming [email protected]
Format settings, BVOP : Ja
Format settings, QPel : Nein
Format settings, GMC : No warppoints
Format settings, Matrix : Default
Codec ID : XVID
Codec ID/Hint : XviD
Duration : 23min
Bitrate : 1224 Kbps
Breite : 512 Pixel
Höhe : 384 Pixel
Bildseitenverhältnis : 4/3
Bildwiederholungsrate : 25.000 FPS
Auflösung : 8 bits
Colorimetry : 4:2:0
Scan type : Progressive
Bits/(Pixel*Frame) : 0.249
Stream size : 209 MiB (89)
verwendete Encoder-Bibliothek : XviD 1.0.3 (UTC 2004-12-20)

Audio

Format : MPEG Audio
Format version : Version 1
Format profile : Layer 3
Codec ID : 55
Codec ID/Hint : MP3
Duration : 23min
Bitraten-Modus : Variable
Bitrate : 131 Kbps
Nominal bit rate : 128 Kbps
Kanäle : 2 Kanäle
Samplingrate : 48.0 KHz
Auflösung : 16 bits
Stream size : 22.4 MiB (10)
Alignment : Aligned on interleaves
Interleave, duration : 24 ms (0.60 video frame)
Interleave, preload duration : 480 ms
verwendete Encoder-Bibliothek : LAME3.90.
Kodierungseinstellungen : ABR


Kurzbeschreibung

Vier gut aussehende, allseits beliebte Jungs bekommen die Chance, mietfrei in einer schicken Villa zu wohnen. Doch die Vermieterin stellt eine Bedingung: Sie sollen ihre Nichte Sunako von einem zurückgezogenen Horror- und Gothic-Freak in eine bezaubernde, junge Dame verwandeln. Keine leichte Aufgabe, denn Sunako findet sich selber hässlich, seit sie von ihren Schwarm zurückgewiesen wurde. Außerdem hasst sie die Gesellschaft anderer und begegnet den Verwandlungsversuchen der vier recht widerspenstig


Unsere URL http://h-n-h.ath.cx


related torrents

Torrent name

health leech seeds Size
 


comments (0)

Main Menu