Other

Reaper Staffel 1 HDTVRip German Dubbed

  • Download 5x Faster
  • Download torrent
  • Direct Download
  • Rate this torrent +  |  -
Reaper Staffel 1 HDTVRip German Dubbed

Anonymous and Free Direct Download 300GB+


Torrent info

Name:Reaper Staffel 1 HDTVRip German Dubbed

Total Size: 6.92 GB

Magnet: Magnet Link

Seeds: 0

Leechers: 0

Stream: Watch Online @ Movie4u

Last Updated: 2011-02-06 11:14:30 (Update Now)

Torrent added: 2008-08-28 03:45:38



VPN For Torrents

Torrent Files List


Reaper.S01E01.Pilot.HDTVRip.LD.DL.avi (Size: 6.53 GB) (Files: 17)

 Reaper.S01E01.Pilot.HDTVRip.LD.DL.avi

401.05 MB

 Reaper.S01E02.Charged.HDTVRip.LD.DL.avi

401.22 MB

 Reaper.S01E03.Fuer.Mich.HDTVRip.LD.DL.avi

397.27 MB

 Reaper.S01E04.Magier.HDTVRip.LD.DL.avi

399.92 MB

 Reaper.S01E05.Was.ist.mit.Blob.HDTVRip.LD.DL.avi

399.54 MB

 Reaper.S01E06.Leon.HDTVRip.LD.DL.avi

399.83 MB

 Reaper.S01E07.Love.Bullets.And.Blacktop.HDTVRip.LD.DL.avi

399.77 MB

 Reaper.S01E08.The.Cop.HDTVRip.LD.DL.avi

399.91 MB

 Reaper.S01E09.Ashes.to.Ashes.HDTVRip.LD.DL.avi

399.85 MB

 Reaper.S01E10.Cash.Out.HDTVRip.LD.DL.avi

399.78 MB

 Reaper.S01E11.Hungry.for.Fame.HDTVRip.LD.DL.avi

400.03 MB

 Reaper.S01E12.Unseen.HDTVRip.LD.DL.avi

399.74 MB

 Reaper.S01E14.Rebellion.HDTVRip.LD.DL.avi

398.97 MB

 Reaper.S01E15.Coming.to.Grips.HDTVRip.LD.DL.avi

397.85 MB

 Reaper.S01E16.Greg.Schmeg.HDTVRip.LD.DL.avi

397.78 MB

 Reaper.S01E17.Die.undichte.Stelle.HDTVRip.German.LD.avi

349.13 MB

 Reaper.S01E18.Cancun.HDTVRip.German.LD.avi

349.47 MB
 

Announce URL:

Torrent description


...::::Edelweis-Gruop Presents::::...

Torrent Name: Reaper Staffel 1 *komplett*

-------------------------

--> Movie/Serie

Sprache: [X] Deutsch [ ] Englisch [X] siehe Beschreibung

Quelle:
Video: [X] HDTV [ ] DVD [ ] TV/dTV [ ] TS [ ] Cam [ ] Sonstiges
Audio: [ ] HDTV [ ] DVD [ ] TV/dTV [X] LD [ ] Micro [ ] Sonstiges

Genre: TV-Serie/SciFi


Untertitel: keine

Extras: keine



-------------------------

Beschreibung:
In der Serie Reaper geht es um Sam (Bret Harrison). Er ist ein jungen Mann, dessen Eltern ihn bei seiner Geburt an den Teufel (Ray Wise) verkauft haben. Nachdem er die Schule verließ und auch das College schmiss, hat er sich zu einem Faulenzer und Drückeberger entwickelt, der es nur zu einem unterbezahlten Job in einem Baumarkt geschafft hat.

Doch Luzifer persönlich nimmt sich seiner an.

Jetzt ist er Kopfgeldjäger des Teufels und geht fängt Seelen für seinen Boss ein, die aus der Hölle fliehen konnten. Ihm zur Seite stehen seine beiden Kollegen Sock (Tyler Labine) und Ben (Rick Gonzalez). Ein Auge hat Sam auf seine Kollegin Andi (Missy Peregrym) geworfen. #

Episodengide:
Reaper.S01E01.Pilot.HDTVRip.LD.DL.avi
Reaper.S01E02.Charged.HDTVRip.LD.DL.avi
Reaper.S01E03.Fuer.Mich.HDTVRip.LD.DL.avi
Reaper.S01E04.Magier.HDTVRip.LD.DL.avi
Reaper.S01E05.Was.ist.mit.Blob.HDTVRip.LD.DL.avi
Reaper.S01E06.Leon.HDTVRip.LD.DL.avi
Reaper.S01E07.Love.Bullets.And.Blacktop.HDTVRip.LD.DL.avi
Reaper.S01E08.The.Cop.HDTVRip.LD.DL.avi
Reaper.S01E09.Ashes.to.Ashes.HDTVRip.LD.DL.avi
Reaper.S01E10.Cash.Out.HDTVRip.LD.DL.avi
Reaper.S01E11.Hungry.for.Fame.HDTVRip.LD.DL.avi
Reaper.S01E12.Unseen.HDTVRip.LD.DL.avi
Reaper.S01E13.Acid.Queen.HDTVRip.LD.DL.avi
Reaper.S01E14.Rebellion.HDTVRip.LD.DL.avi
Reaper.S01E15.Coming.to.Grips.HDTVRip.LD.DL.avi
Reaper.S01E16.Greg.Schmeg.HDTVRip.LD.DL.avi
Reaper.S01E17.Die.undichte.Stelle.HDTVRip.German.LD.avi
Reaper.S01E18.Cancun.HDTVRip.German.LD.avi


-------------------------

Teschnische Details:
General
Format : AVI
Format/Info : Audio Video Interleave
File size : 349 MiB
Duration : 40mn 18s
Overall bit rate : 1211 Kbps
Writing application : Nandub v1.0rc2
Writing library : Nandub build 1852/release

Video
Format : MPEG-4 Visual
Format profile : Streaming [email protected]
Format settings, BVOP : Yes
Format settings, QPel : No
Format settings, GMC : No warppoints
Format settings, Matrix : Default
Codec ID : XVID
Codec ID/Hint : XviD
Duration : 40mn 18s
Bit rate : 1041 Kbps
Width : 640 pixels
Height : 352 pixels
Display aspect ratio : 16/9
Frame rate : 25.000 fps
Resolution : 8 bits
Colorimetry : 4:2:0
Scan type : Progressive
Bits/(Pixel*Frame) : 0.185
Stream size : 300 MiB (86)
Writing library : XviD 1.2.0SMP (UTC 2006-01-08)

Audio
Format : MPEG Audio
Format version : Version 1
Format profile : Layer 3
Codec ID : 55
Codec ID/Hint : MP3
Duration : 40mn 18s
Bit rate mode : Variable
Bit rate : 157 Kbps
Channel(s) : 2 channels
Sampling rate : 48.0 KHz
Resolution : 16 bits
Stream size : 45.3 MiB (13)
Alignment : Aligned on interleaves
Interleave, duration : 24 ms (0.60 video frame)
Interleave, preload duration : 117 ms


--------------------------------------------

Note:

Happy Leeching und das Seeden nicht vergessen

Wuerdigt die Arbeit eines jeden Uppers mit einen Danke und/oder eines netten Kommentars.

Bin fuer Lob und Kritik stets offen.

--------------------------------------------



NFO File make with ZNFO Maker V6.0
(C)2008 by Edelweis-Group

related torrents

Torrent name

health leech seeds Size
 


comments (0)

Main Menu