Animation

Batman Gotham Knight 2008 Eng DVDRip ATOMIC RG Phoenix

  • Download 5x Faster
  • Download torrent
  • Direct Download
  • Rate this torrent +  |  -
Batman Gotham Knight 2008 Eng DVDRip ATOMIC RG Phoenix

Anonymous and Free Direct Download 300GB+


Torrent info

Name:Batman Gotham Knight 2008 Eng DVDRip ATOMIC RG Phoenix

Total Size: 696.83 MB

Magnet: Magnet Link

Seeds: 0

Leechers: 1

Stream: Watch Online @ Movie4u

Last Updated: 0000-00-00 00:00:00 (Update Now)

Torrent added: 2008-07-04 03:33:41



VPN For Torrents

Torrent Files List


Batman.Gotham.Knight.2008.Eng.DVDRip.FLAWL3SS.nfo (Size: 696.83 MB) (Files: 53)

 Batman.Gotham.Knight.2008.Eng.DVDRip.FLAWL3SS.nfo

1.84 KB

 Batman.Gotham.Knight.2008.Eng.DVDRip.FLAWL3SS.part01.rar

14.31 MB

 Batman.Gotham.Knight.2008.Eng.DVDRip.FLAWL3SS.part02.rar

14.31 MB

 Batman.Gotham.Knight.2008.Eng.DVDRip.FLAWL3SS.part03.rar

14.31 MB

 Batman.Gotham.Knight.2008.Eng.DVDRip.FLAWL3SS.part04.rar

14.31 MB

 Batman.Gotham.Knight.2008.Eng.DVDRip.FLAWL3SS.part05.rar

14.31 MB

 Batman.Gotham.Knight.2008.Eng.DVDRip.FLAWL3SS.part06.rar

14.31 MB

 Batman.Gotham.Knight.2008.Eng.DVDRip.FLAWL3SS.part07.rar

14.31 MB

 Batman.Gotham.Knight.2008.Eng.DVDRip.FLAWL3SS.part08.rar

14.31 MB

 Batman.Gotham.Knight.2008.Eng.DVDRip.FLAWL3SS.part09.rar

14.31 MB

 Batman.Gotham.Knight.2008.Eng.DVDRip.FLAWL3SS.part10.rar

14.31 MB

 Batman.Gotham.Knight.2008.Eng.DVDRip.FLAWL3SS.part11.rar

14.31 MB

 Batman.Gotham.Knight.2008.Eng.DVDRip.FLAWL3SS.part12.rar

14.31 MB

 Batman.Gotham.Knight.2008.Eng.DVDRip.FLAWL3SS.part13.rar

14.31 MB

 Batman.Gotham.Knight.2008.Eng.DVDRip.FLAWL3SS.part14.rar

14.31 MB

 Batman.Gotham.Knight.2008.Eng.DVDRip.FLAWL3SS.part15.rar

14.31 MB

 Batman.Gotham.Knight.2008.Eng.DVDRip.FLAWL3SS.part16.rar

14.31 MB

 Batman.Gotham.Knight.2008.Eng.DVDRip.FLAWL3SS.part17.rar

14.31 MB

 Batman.Gotham.Knight.2008.Eng.DVDRip.FLAWL3SS.part18.rar

14.31 MB

 Batman.Gotham.Knight.2008.Eng.DVDRip.FLAWL3SS.part19.rar

14.31 MB

 Batman.Gotham.Knight.2008.Eng.DVDRip.FLAWL3SS.part20.rar

14.31 MB

 Batman.Gotham.Knight.2008.Eng.DVDRip.FLAWL3SS.part21.rar

14.31 MB

 Batman.Gotham.Knight.2008.Eng.DVDRip.FLAWL3SS.part22.rar

14.31 MB

 Batman.Gotham.Knight.2008.Eng.DVDRip.FLAWL3SS.part23.rar

14.31 MB

 Batman.Gotham.Knight.2008.Eng.DVDRip.FLAWL3SS.part24.rar

14.31 MB

 Batman.Gotham.Knight.2008.Eng.DVDRip.FLAWL3SS.part25.rar

14.31 MB

 Batman.Gotham.Knight.2008.Eng.DVDRip.FLAWL3SS.part26.rar

14.31 MB

 Batman.Gotham.Knight.2008.Eng.DVDRip.FLAWL3SS.part27.rar

14.31 MB

 Batman.Gotham.Knight.2008.Eng.DVDRip.FLAWL3SS.part28.rar

14.31 MB

 Batman.Gotham.Knight.2008.Eng.DVDRip.FLAWL3SS.part29.rar

14.31 MB

 Batman.Gotham.Knight.2008.Eng.DVDRip.FLAWL3SS.part30.rar

14.31 MB

 Batman.Gotham.Knight.2008.Eng.DVDRip.FLAWL3SS.part31.rar

14.31 MB

 Batman.Gotham.Knight.2008.Eng.DVDRip.FLAWL3SS.part32.rar

14.31 MB

 Batman.Gotham.Knight.2008.Eng.DVDRip.FLAWL3SS.part33.rar

14.31 MB

 Batman.Gotham.Knight.2008.Eng.DVDRip.FLAWL3SS.part34.rar

14.31 MB

 Batman.Gotham.Knight.2008.Eng.DVDRip.FLAWL3SS.part35.rar

14.31 MB

 Batman.Gotham.Knight.2008.Eng.DVDRip.FLAWL3SS.part36.rar

14.31 MB

 Batman.Gotham.Knight.2008.Eng.DVDRip.FLAWL3SS.part37.rar

14.31 MB

 Batman.Gotham.Knight.2008.Eng.DVDRip.FLAWL3SS.part38.rar

14.31 MB

 Batman.Gotham.Knight.2008.Eng.DVDRip.FLAWL3SS.part39.rar

14.31 MB

 Batman.Gotham.Knight.2008.Eng.DVDRip.FLAWL3SS.part40.rar

14.31 MB

 Batman.Gotham.Knight.2008.Eng.DVDRip.FLAWL3SS.part41.rar

14.31 MB

 Batman.Gotham.Knight.2008.Eng.DVDRip.FLAWL3SS.part42.rar

14.31 MB

 Batman.Gotham.Knight.2008.Eng.DVDRip.FLAWL3SS.part43.rar

14.31 MB

 Batman.Gotham.Knight.2008.Eng.DVDRip.FLAWL3SS.part44.rar

14.31 MB

 Batman.Gotham.Knight.2008.Eng.DVDRip.FLAWL3SS.part45.rar

14.31 MB

 Batman.Gotham.Knight.2008.Eng.DVDRip.FLAWL3SS.part46.rar

14.31 MB

 Batman.Gotham.Knight.2008.Eng.DVDRip.FLAWL3SS.part47.rar

14.31 MB

 Batman.Gotham.Knight.2008.Eng.DVDRip.FLAWL3SS.part48.rar

14.31 MB

 Batman.Gotham.Knight.2008.Eng.DVDRip.FLAWL3SS.part49.rar

2.97 MB

 Batman.Gotham.Knight.2008.Eng.DVDRip.FLAWL3SS.sfv

8.10 KB

 sample

  Batman.Gotham.Knight.2008.Eng.DVDRip.FLAWL3SS.Sample.avi

7.21 MB

 tracked_by_h33t_com.txt

0.02 KB
 

Announce URL: http://www.h33t.com:3310/announce

Torrent description

[color="#FF0000"]Rated PG-13 for stylized violence, including some bloody images[/color]


General

Complete name : Batman.Gotham.Knight.2008.Eng.DVDRip
Format : AVI
Format/Info : Audio Video Interleave
File size : 700 MiB
Duration : 1h 15mn
Overal bit rate : 1289 Kbps
Video
Format : MPEG-4 Visual
Codec ID : XVID
Bit rate : 1160 Kbps
Width : 720 pixels
Height : 416 pixels
Display aspect ratio : 16/9
Frame rate : 23.976 fps
Resolution : 8 bits
Colorimetry : 4:2:0
Scan type : Progressive
Bits/(Pixel*Frame) : 0.162
Stream size : 630 MiB
Audio
Format : MPEG Audio
Format version : Version 1
Format profile : Layer 3
Codec ID : 55
Codec ID/Hint : MP3
Bit rate mode : Constant
Bit rate : 32.0 Kbps
Channel(s) : 2 channels
Sampling rate : 48.0 KHz
Resolution : 16 bits
Stream size : 62.9 MiB
Writing library : LAME3.97
Language : english


Size 696 MB


PLOT

Acclaimed screenwriter including David Goyer (Batman Begins), Josh Olson
(A History Of Violence) and Alan Burnett (Batman The Animated Series) join
forces with revered animation filmmakers on six spellbinding chapters
chronicling Batman's transition from novice crimefighter to The Dark Knight.

These globe-spanning adventures pit batman against the fearsome Scarecrow,
the freakish Killer Croc and the unerring marksman Deadshot. From some of
the world's most visionary animators comes a thrilling depiction of Batman
as man, myth and legend.

IMDB: h**p://www.imdb.com/title/tt1117563/

related torrents

Torrent name

health leech seeds Size
 


comments (0)

Main Menu