Action

The Mummy Tomb Of The Dragon Emperor (2008) Divx R5 Noir

  • Download 5x Faster
  • Download torrent
  • Direct Download
  • Rate this torrent +  |  -
The Mummy Tomb Of The Dragon Emperor (2008) Divx R5 Noir

Anonymous and Direct Download 300GB+ free


Torrent info

Name:The Mummy Tomb Of The Dragon Emperor (2008) Divx R5 Noir

Total Size: 715.29 MB

Magnet: Magnet Link

Seeds: 1

Leechers: 4

Stream: Watch Online @ Movie4u

Last Updated: 0000-00-00 00:00:00 (Update Now)

Torrent added: 2009-08-19 00:00:00




Torrent Files List


1337x.Org.txt (Size: 715.29 MB) (Files: 3)

 1337x.Org.txt

0.03 KB

 Noir.nfo

5.11 KB

 The Mummy Tomb Of The Dragon Emperor (2008) [Divx] [R5]-Noir.avi

715.28 MB
 

Announce URL: http://genesis.1337x.org:1337/announce

Torrent description

The Mummy Tomb Of The Dragon Emperor (2008) Divx R5 Noir preview 0

Screenshots

The Mummy Tomb Of The Dragon Emperor (2008) Divx R5 Noir preview 1

The Mummy Tomb Of The Dragon Emperor (2008) Divx R5 Noir preview 2

The Mummy Tomb Of The Dragon Emperor (2008) Divx R5 Noir preview 3

The Mummy Tomb Of The Dragon Emperor (2008) Divx R5 Noir preview 4
[code]
______________________________________________________________
▓▓▓▓▓▓
▓█████▓ ▓▓▓▓
▓██████▓ ▓▓███▓
▓▓██████▓ ▓████▓▓▓▓▓▓
██████▓ ▓██▒█▓▓███▓▓ ▓▓▓▓▓▓▓▓▓▓▓▓▓
▓██▒████▓ ▓██▒█▓██████▓▓███▓███▓███▓▓
▓██▒▒████▓ ▓██▒███▒▒▒▒██▓████████████▓
▓██▒▒▒▒███▓ ▓██▒██▒▒▒▒▒▒███▒▒▒██▒█▒▒▒██▓▓
▓██▒▒██▒▒██▓▓██▒██▒▒█▒▒▒▒███████▒▒▒▒▒▒██▓
▓██▒▒███▒▒██▓██▒██▒█▓█▒▒▒██▒▒▒██▒▒██▒▒▒█▓
▓██▒▒████▒▒████▒██▒█▓█▒▒▒██▒▒▒██▒▒███▒██▓
▓██▒▒█▓███▒▒███▒██▒▒█▒▒▒▒██▒▒▒██▒▒██████▓
▓██▒▒█▓▓███▒▒██▒██▒▒▒▒▒▒▒██▒▒▒██▒▒██▓███▓
▓▓██▒▒█▓ ▓███▒▒█▒██▒▒▒▒▒▒▒███████▒▒██▓▓▓▓▓
▓▓███▒▒█▓ ▓███▒▒▒███▒▒▒▒▒██▓▓▓▓██▒▒██▓
▓████▒▒█▓ ▓███▒▒█████████▓▓ ▓██▒▒██▓
▓████▒▒█▓ ▓███▒█▓██████▓▓▓ ▓██████▓
▓███████▓ ▓▓████▓▓▓▓▓▓▓▓ ▓▓▓▓▓▓▓▓
▓▓▓▓▓▓▓▓▓ ▓▓▓▓▓
______________________________________________________________



***********************************************
* The Mummy Tomb Of The Dragon Emperor (2008) *
***********************************************

________________________
General Information |
________________________|
_______________________________________________________________
Type : Movie |
Format : AVI |
Format/Info : Audio Video Interleave |
File size : 715 MiB |
Duration : 1h 47mn |
Subtitles : |
Source : Dvd R5 Pal |
Genre : Action | Adventure | Thriller |
IMDB Link : http://www.imdb.com/title/tt0859163/ |
Rating : 5.3/10 |
_______________________________________________________________|
Video
Format : MPEG-4 Visual
Format settings, BVOP : Yes
Format settings, QPel : No
Format settings, GMC : No warppoints
Format settings, Matrix : Default
Codec ID : DX50
Codec ID/Hint : DivX 5
Duration : 1h 37mn
Bit rate : 890 Kbps
Width : 608 pixels
Height : 336 pixels
Display aspect ratio : 16/9
Frame rate : 25.000 fps
Resolution : 24 bits
Colorimetry : 4:2:0
Scan type : Progressive
Bits/(Pixel*Frame) : 0.174
Stream size : 619 MiB (87%)
_______________________________________________________________
Audio
Format : MPEG Audio
Format version : Version 1
Format profile : Layer 3
Codec ID : 55
Codec ID/Hint : MP3
Duration : 1h 37mn
Bit rate mode : Constant
Bit rate : 128 Kbps
Minimum bit rate : 128 Kbps
Channel(s) : 2 channels
Sampling rate : 48.0 KHz
Resolution : 16 bits
Stream size : 89.1 MiB (12%)
Alignment : Aligned on interleaves
Interleave, duration : 40 ms (1.00 video frame)
Interleave, preload duration : 504 ms
Writing library : LAME3.97
Encoding settings : CBR
_______________________________________________________________
________________
Description |
________________|
_______________________________________________________________
Doomed by a double-crossing sorceress (Michelle Yeoh) to spend |
eternity in suspended animation, China\'s ruthless Dragon |
Emperor and his 10,000 warriors have lain forgotten for eons, |
entombed in clay as a vast, silent terra cotta army. But when |
dashing adventurer Alex O\'Connell is tricked into awakening the|
ruler from eternal slumber, the reckless young archaeologist |
must seek the help of the only people who know more than he |
does about taking down the undead: his parents. |
_______________________________________________________________|

___________________
Post Information |
___________________|
________________________________
Posted by............: Noir |
Posted on............: 8/23/2008|
________________________________|
[/code]
The Mummy Tomb Of The Dragon Emperor (2008) Divx R5 Noir preview 5

The Mummy Tomb Of The Dragon Emperor (2008) Divx R5 Noir preview 6

related torrents

Torrent name

health leech seeds Size
 


comments (0)

Main Menu