Anime - Other

Rumiko Takahashi Anthology Komplett Deutsch Teil 1 13

  • Download 5x Faster
  • Download torrent
  • Direct Download
  • Rate this torrent +  |  -
Rumiko Takahashi Anthology Komplett Deutsch Teil 1 13

Anonymous and free Direct Download 300GB+


Torrent info

Name:Rumiko Takahashi Anthology Komplett Deutsch Teil 1 13

Total Size: 2.88 GB

Magnet: Magnet Link

Seeds: 0

Leechers: 0

Stream: Watch Online @ Movie4u

Last Updated: 2010-08-21 22:00:44 (Update Now)

Torrent added: 2008-08-27 12:33:20



VPN For Torrents

Torrent Files List


Rumiko Takahashi Anthology.rar (Size: 2.88 GB) (Files: 1)

 Rumiko Takahashi Anthology.rar

2.88 GB
 

Announce URL: http://h-n-h.ath.cx/announce.php

Torrent description

Rumiko Takahashi AnthologyRumiko Takahashi Anthology 1 - 13

Format : AVI
Format/Info : Audio Video Interleave
Dateigre : 230 MiB
Duration : 24min
Overall bit rate : 1333 Kbps
Verwendetes Programm : VirtualDubMod 1.5.10.2 (build 2540/release)
verwendete Encoder-Bibliothek : VirtualDubMod build 2540/release

Video
Format : MPEG-4 Visual
Format profile : Streaming [email protected]
Format settings, BVOP : Ja
Format settings, QPel : Nein
Format settings, GMC : No warppoints
Format settings, Matrix : Default
Muxing mode : Packet Bitstream
Codec ID : XVID
Codec ID/Hint : XviD
Duration : 24min
Bitrate : 999 Kbps
Breite : 720 Pixel
Höhe : 400 Pixel
Bildseitenverhältnis : 16/9
Bildwiederholungsrate : 25.000 FPS
Auflösung : 8 bits
Colorimetry : 4:2:0
Scan type : Progressive
Bits/(Pixel*Frame) : 0.139
Stream size : 172 MiB (75)
verwendete Encoder-Bibliothek : XviD 1.1.0 (UTC 2005-11-22)

Audio #1
Format : MPEG Audio
Format version : Version 1
Format profile : Layer 3
Codec ID : 55
Codec ID/Hint : MP3
Duration : 24min
Bitraten-Modus : Constant
Bitrate : 160 Kbps
Kanäle : 2 Kanäle
Samplingrate : 48.0 KHz
Auflösung : 16 bits
Stream size : 27.6 MiB (12)
Alignment : Aligned on interleaves
Interleave, duration : 40 ms (1.00 video frame)
Interleave, preload duration : 504 ms

Audio #2
Format : MPEG Audio
Format version : Version 1
Format profile : Layer 3
Codec ID : 55
Codec ID/Hint : MP3
Duration : 24min
Bitraten-Modus : Constant
Bitrate : 160 Kbps
Kanäle : 2 Kanäle
Samplingrate : 48.0 KHz
Auflösung : 16 bits
Stream size : 27.6 MiB (12)
Alignment : Aligned on interleaves
Interleave, duration : 40 ms (1.00 video frame)
Interleave, preload duration : 504 ms





In diesen humorvoll erzählten Geschichten aus dem japanischen Alltagsleben blitzt immer wieder RÄTSELHAFTES UND PHANTASTISCHES auf: Übernatürliche Kräfte wirken auf Alltägliches ein, Gewöhnliches scheint wie verzaubert


Episode 01 - Das Drama um Pi
Episode 02 - Die Liebe eines Geschäftsmannes
Episode 03 - Ein später Teenager
Episode 04 - Im Blumentopf
Episode 05 - Familie F. auf Abwegen
Episode 06 - Hauptsache, du bist da
Episode 07 - Eine hundertjährige Liebe
Episode 08 - Anstelle eines Dankes
Episode 09 - Lovesong im Wohnzimmer
Episode 10 - Vor das Haus geworfen
Episode 11 - Ein Traum für einen Tag
Episode 12 - Glück in Gre L
Episode 13 - Der Hund des Direktors



Unsere URL http://h-n-h.ath.cx

related torrents

Torrent name

health leech seeds Size
 


comments (0)

Main Menu