Classic

Turina Violin Sonatas Felix Ayo, Bruno Canino

  • Download 5x Faster
  • Download torrent
  • Direct Download
  • Rate this torrent +  |  -
Turina Violin Sonatas Felix Ayo, Bruno Canino

Download FREE And Anonymously


Torrent info

Name:Turina Violin Sonatas Felix Ayo, Bruno Canino

Total Size: 355.59 MB

Magnet: Magnet Link

Seeds: 0

Leechers: 0

Stream: Watch Full Movie @ Movie4u

Last Updated: 2011-02-04 22:08:03 (Update Now)

Torrent added: 2008-08-27 09:58:06



VPN For Torrents

Torrent Files List


CDImage (flac).cue (Size: 355.58 MB) (Files: 18)

 CDImage (flac).cue

1.27 KB

 CDImage (wav).cue

1.27 KB

 CDImage.flac

211.13 MB

 EAC.log

2.19 KB

 Read me.txt

0.39 KB

 Scans

  Booklet 001.png

15.66 MB

  Booklet 002.png

12.19 MB

  Booklet 003.png

11.59 MB

  Booklet 004.png

11.72 MB

  Booklet 005.png

11.86 MB

  Booklet 006.png

11.84 MB

  Booklet 007.png

13.59 MB

  Booklet 008.png

12.12 MB

  Booklet 009.png

12.06 MB

  Booklet 010.png

10.24 MB

  Disc.png

10.16 MB

  Tray.png

11.41 MB

 Torrent downloaded from Demonoid.com.txt

0.05 KB
 

Announce URL: http://inferno.demonoid.com:3393/announce

Torrent description

JOAQUÍN TURINA (1882-1949)

The Three Sonatas for Violin and Piano
Sonata No. 1 Op. 51 (dedicated to Jeanne Gautier)
1. Lento, Allegro molto
2. Aria, Lento
3. Rondeau, Allegretto

Sonata No. 2 Op. 82 (dedicated to Pedro Sanjuan)
4. Lento, Tema,
Var. I (Allegretto),
Var. II (Andante),
Var. III (Moderato)
5. Vivo, Andante
6. Adagio, Allegro moderato

Sonata Española (1907/1908)
7. Allegro moderato
8. Andante
9. Très vif

Felix Ayo, violin (Guadagnini, 1744)
Bruno Canino, piano (Steinway Gran Coda)

Exact Audio Copy V0.99 prebeta 4 from 23. January 2008

EAC extraction logfile from 26. August 2008, 15:03

Felix Ayo, Bruno Canino / Joaquin Turina - The Three Sonatas for Violin and Piano

Used drive : HL-DT-STDVD-ROM GDR8163B Adapter: 1 ID: 1

Read mode : Secure
Utilize accurate stream : Yes
Defeat audio cache : Yes
Make use of C2 pointers : No

Read offset correction : 102
Overread into Lead-In and Lead-Out : No
Fill up missing offset samples with silence : Yes
Delete leading and trailing silent blocks : No
Null samples used in CRC calculations : Yes
Used interface : Installed external ASPI interface

Used output format : Internal WAV Routines
Sample format : 44.100 Hz; 16 Bit; Stereo

TOC of the extracted CD

Track | Start | Length | Start sector | End sector
---------------------------------------------------------
1 | 0:00.32 | 4:48.40 | 32 | 21671
2 | 4:48.72 | 4:22.20 | 21672 | 41341
3 | 9:11.17 | 4:07.15 | 41342 | 59881
4 | 13:18.32 | 8:22.43 | 59882 | 97574
5 | 21:41.00 | 2:33.22 | 97575 | 109071
6 | 24:14.22 | 6:01.38 | 109072 | 136184
7 | 30:15.60 | 9:20.22 | 136185 | 178206
8 | 39:36.07 | 6:46.68 | 178207 | 208724
9 | 46:23.00 | 9:22.47 | 208725 | 250921

Range status and errors

Selected range

Filename D:\Classical\Turina Violin Sonatas - Felix Ayo, Bruno Canino\CDImage.wav

Peak level 94.2 %
Range quality 100.0 %
Test CRC 33ABA907
Copy CRC 33ABA907
Copy OK

No errors occurred

AccurateRip summary

Track 1 not present in database
Track 2 not present in database
Track 3 not present in database
Track 4 not present in database
Track 5 not present in database
Track 6 not present in database
Track 7 not present in database
Track 8 not present in database
Track 9 not present in database

None of the tracks are present in the AccurateRip database

End of status report

related torrents

Torrent name

health leech seeds Size

Debussy Bruno Canino CD2

3 0 98.43 MB 0
 


comments (0)

Main Menu

 

script data-cfasync="false" src="//d2ghscazvn398x.cloudfront.net/?cshgd=690275">