Action

The Mummy Tomb of the Dragon Emperor (2008) {R5 By {Noir}

  • Download 5x Faster
  • Download torrent
  • Direct Download
  • Rate this torrent +  |  -
The Mummy Tomb of the Dragon Emperor (2008) {R5 By {Noir}

Free and Direct Download with Usenet 300GB+ free


Torrent info

Name:The Mummy Tomb of the Dragon Emperor (2008) {R5 By {Noir}

Total Size: 684.68 MB

Magnet: Magnet Link

Seeds: 1

Leechers: 21

Stream: Watch Online @ Movie4u

Last Updated: 2010-08-06 08:03:00 (Update Now)

Torrent added: 2008-08-27 08:15:58




Torrent Files List


1337x.Org.txt (Size: 684.68 MB) (Files: 3)

 1337x.Org.txt

0.03 KB

 Noir.nfo

5.28 KB

 The Mummy Tomb of the Dragon Emperor (2008) {R5] By {Noir}.avi

684.67 MB
 

Announce URL: http://genesis.1337x.org:1337/announce

Torrent description

The Mummy Tomb of the Dragon Emperor (2008) {R5 By {Noir} preview 0

Screenshots

The Mummy Tomb of the Dragon Emperor (2008) {R5 By {Noir} preview 1

The Mummy Tomb of the Dragon Emperor (2008) {R5 By {Noir} preview 2

The Mummy Tomb of the Dragon Emperor (2008) {R5 By {Noir} preview 3

[code]
______________________________________________________________
▓▓▓▓▓▓
▓█████▓ ▓▓▓▓
▓██████▓ ▓▓███▓
▓▓██████▓ ▓████▓▓▓▓▓▓
██████▓ ▓██▒█▓▓███▓▓ ▓▓▓▓▓▓▓▓▓▓▓▓▓
▓██▒████▓ ▓██▒█▓██████▓▓███▓███▓███▓▓
▓██▒▒████▓ ▓██▒███▒▒▒▒██▓████████████▓
▓██▒▒▒▒███▓ ▓██▒██▒▒▒▒▒▒███▒▒▒██▒█▒▒▒██▓▓
▓██▒▒██▒▒██▓▓██▒██▒▒█▒▒▒▒███████▒▒▒▒▒▒██▓
▓██▒▒███▒▒██▓██▒██▒█▓█▒▒▒██▒▒▒██▒▒██▒▒▒█▓
▓██▒▒████▒▒████▒██▒█▓█▒▒▒██▒▒▒██▒▒███▒██▓
▓██▒▒█▓███▒▒███▒██▒▒█▒▒▒▒██▒▒▒██▒▒██████▓
▓██▒▒█▓▓███▒▒██▒██▒▒▒▒▒▒▒██▒▒▒██▒▒██▓███▓
▓▓██▒▒█▓ ▓███▒▒█▒██▒▒▒▒▒▒▒███████▒▒██▓▓▓▓▓
▓▓███▒▒█▓ ▓███▒▒▒███▒▒▒▒▒██▓▓▓▓██▒▒██▓
▓████▒▒█▓ ▓███▒▒█████████▓▓ ▓██▒▒██▓
▓████▒▒█▓ ▓███▒█▓██████▓▓▓ ▓██████▓
▓███████▓ ▓▓████▓▓▓▓▓▓▓▓ ▓▓▓▓▓▓▓▓
▓▓▓▓▓▓▓▓▓ ▓▓▓▓▓
______________________________________________________________



************************************************
* The Mummy: Tomb of the Dragon Emperor (2008) *
************************************************

________________________
General Information |
________________________|
_______________________________________________________________
Type : Movie |
Format : AVI |
Format/Info : Audio Video Interleave |
File size : 685 MiB |
Duration : 1h 51mn |
Subtitles : |
Source : DVD R5 Pal |
Genre : Action | Adventure | Thriller |
IMDB Link : http://www.imdb.com/title/tt0859163/ |
Rating : 5.3/10 |
_______________________________________________________________|
Video
Format : MPEG-4 Visual
Format settings, BVOP : Yes
Format settings, QPel : No
Format settings, GMC : No warppoints
Format settings, Matrix : Default
Codec ID : DX50/60
Codec ID/Hint : DivX 5
Duration : 1h 51mn
Bit rate : 753 Kbps
Width : 608 pixels
Height : 256 pixels
Display aspect ratio : 2.35
Frame rate : 25.000 fps
Resolution : 24 bits
Colorimetry : 4:2:0
Scan type : Progressive
Bits/(Pixel*Frame) : 0.198
Stream size : 600 MiB (85%)
_______________________________________________________________
Audio
Format : MPEG Audio
Format version : Version 1
Format profile : Layer 3
Codec ID : 55
Codec ID/Hint : MP3
Duration : 1h 45mn
Bit rate mode : Constant
Bit rate : 128 Kbps
Minimum bit rate : 128 Kbps
Channel(s) : 2 channels
Sampling rate : 48.0 KHz
Resolution : 16 bits
Stream size : 96.9 MiB (14%)
Alignment : Aligned on interleaves
Interleave, duration : 42 ms (1.05 video frame)
Interleave, preload duration : 504 ms
Writing library : LAME3.97
Encoding settings : CBR
_______________________________________________________________
________________
Description |
________________|
_______________________________________________________________
The blockbuster global \"Mummy\" franchise takes a spellbinding |
turn as the action shifts to Asia for the next chapter in the |
adventure series, \"The Mummy: Tomb of the Dragon Emperor.\" |
Brendan Fraser returns as explorer Rick O\'Connell to combat |
the resurrected Han Emperor (Jet Li) in an epic that races |
from the catacombs of ancient China high into the frigid |
Himalayas. Rick is joined in this all-new adventure by son |
Alex (newcomer Luke Ford), wife Evelyn (Maria Bello) and her |
brother, Jonathan (John Hannah). And this time, the O\'Connells |
must stop a mummy awoken from a 2,000-year-old curse who |
threatens to plunge the world into his merciless, unending |
service |
_______________________________________________________________|
___________________
Post Information |
___________________|
________________________________
Posted by............: Noir |
Posted on............: 8/27/2008|
________________________________|
[/code]
The Mummy Tomb of the Dragon Emperor (2008) {R5 By {Noir} preview 4

The Mummy Tomb of the Dragon Emperor (2008) {R5 By {Noir} preview 5

The Mummy Tomb of the Dragon Emperor (2008) {R5 By {Noir} preview 6

related torrents

Torrent name

health leech seeds Size
 

comments (0)

Main Menu