Jazz

Mel Lewis and the Jazz Orchestra Live at The Village Vanguard (1980) FLAC

  • Download 5x Faster
  • Download torrent
  • Direct Download
  • Rate this torrent +  |  -
Mel Lewis and the Jazz Orchestra Live at The Village Vanguard (1980) FLAC

Free and Direct Download with Usenet 300GB+ free


Torrent info

Name:Mel Lewis and the Jazz Orchestra Live at The Village Vanguard (1980) FLAC

Total Size: 333.17 MB

Magnet: Magnet Link

Seeds: 0

Leechers: 0

Stream: Watch Online @ Movie4u

Last Updated: 2014-02-03 21:14:34 (Update Now)

Torrent added: 2008-08-27 07:01:09




Torrent Files List


00 - Pregap.flac (Size: 333.17 MB) (Files: 22)

 00 - Pregap.flac

8.18 KB

 01 - Ding Dong Ding.flac

44.44 MB

 02 - First Love Song.flac

25.93 MB

 03 - Hello and Goodbye.flac

49.49 MB

 04 - Skylark.flac

37.43 MB

 05 - El Co.flac

96.35 MB

 06 - The Fan Club.flac

34.44 MB

 Checksums.md5

1.08 KB

 EAC.log

3.77 KB

 Info.txt

1.31 KB

 Noncompliant (flac).cue

1.17 KB

 Noncompliant (wav).cue

1.16 KB

 Playlist.m3u

0.50 KB

 Pregap.log

1.62 KB

 Range.cue

0.98 KB

 Read me.txt

0.39 KB

 Scans

  Cover 1.png

13.31 MB

  Cover 2.png

11.56 MB

  Disc.png

10.25 MB

  Tray.png

9.94 MB

 Thumb.jpg

10.75 KB

 Torrent downloaded from Demonoid.com.txt

0.05 KB
 

Announce URL:

Torrent description

MEL LEWIS AND THE JAZZ ORCHESTRA
Live at the Village Vanguard, February 1980.
Featuring a program of compositions and arrangements by BOB BROOKMEYER, with guest appearances by CLARK TERRY.

1. DING DONG DING (7:13)
2. FIRST LOVE SONG (5:06)
3. HELLO AND GOODBYE (7:27)
4. SKYLARK (6:35)
5. EL CO (15:34)
6. THE FAN CLUB (5:11)

The Orchestra:
Trumpets - EARL GARDNER, RON TOOLEY, LARRY MOSES, JOHN MARSHALL
Trombones - JOHN MOSCA, LEE ROBERTSON, EARL MCINTYRE, LOLLY BIENENFELD
French Horn - STEPHANIE FAIRER
Reeds - DICK OATTS, STEVE COLEMAN, BOB MINTZER, RICHARD PERRY, GARY PRIBECK
Piano - JIM McNEELEY
Bass - RUFUS REID
Drums - MEL LEWIS

Exact Audio Copy V0.99 prebeta 4 from 23. January 2008

EAC extraction logfile from 24. August 2008, 21:03

Mel Lewis and the Jazz Orchestra / Live at the Village Vanguard

Used drive : HL-DT-STDVD-ROM GDR8163B Adapter: 1 ID: 1

Read mode : Secure
Utilize accurate stream : Yes
Defeat audio cache : Yes
Make use of C2 pointers : No

Read offset correction : 102
Overread into Lead-In and Lead-Out : No
Fill up missing offset samples with silence : Yes
Delete leading and trailing silent blocks : No
Null samples used in CRC calculations : Yes
Used interface : Installed external ASPI interface
Gap handling : Appended to previous track

Used output format : User Defined Encoder
Selected bitrate : 768 kBit/s
Quality : High
Add ID3 tag : No
Command line compressor : C:\Program Files\Exact Audio Copy\FLAC\FLAC.EXE
Additional command line options : -8 -V -T "ARTIST=%a" -T "TITLE=%t" -T "ALBUM=%g" -T "DATE=%y" -T "TRACKNUMBER=%n" -T "GENRE=%m" -T "COMMENT=EAC FLAC -8"
%s

TOC of the extracted CD

Track | Start | Length | Start sector | End sector
---------------------------------------------------------
1 | 0:00.33 | 7:26.52 | 33 | 33534
2 | 7:27.10 | 5:29.43 | 33535 | 58252
3 | 12:56.53 | 7:50.25 | 58253 | 93527
4 | 20:47.03 | 7:02.65 | 93528 | 125242
5 | 27:49.68 | 16:25.55 | 125243 | 199172
6 | 44:15.48 | 5:24.45 | 199173 | 223517

Track 1

Filename D:\Jazz\Mel Lewis and the Jazz Orchestra - Live at The Village Vanguard (1980) [FLAC]\01 - Ding Dong Ding.wav

Pre-gap length 0:00:02.33

Peak level 90.1 %
Track quality 100.0 %
Test CRC 8ADBA08F
Copy CRC 8ADBA08F
Track not present in AccurateRip database
Copy OK

Track 2

Filename D:\Jazz\Mel Lewis and the Jazz Orchestra - Live at The Village Vanguard (1980) [FLAC]\02 - First Love Song.wav

Pre-gap length 0:00:01.60

Peak level 27.0 %
Track quality 100.0 %
Test CRC E9F7CF17
Copy CRC E9F7CF17
Track not present in AccurateRip database
Copy OK

Track 3

Filename D:\Jazz\Mel Lewis and the Jazz Orchestra - Live at The Village Vanguard (1980) [FLAC]\03 - Hello and Goodbye.wav

Pre-gap length 0:00:03.03

Peak level 68.9 %
Track quality 100.0 %
Test CRC 1405265A
Copy CRC 1405265A
Track not present in AccurateRip database
Copy OK

Track 4

Filename D:\Jazz\Mel Lewis and the Jazz Orchestra - Live at The Village Vanguard (1980) [FLAC]\04 - Skylark.wav

Pre-gap length 0:00:02.18

Peak level 64.5 %
Track quality 100.0 %
Test CRC 0A225484
Copy CRC 0A225484
Track not present in AccurateRip database
Copy OK

Track 5

Filename D:\Jazz\Mel Lewis and the Jazz Orchestra - Live at The Village Vanguard (1980) [FLAC]\05 - El Co.wav

Pre-gap length 0:00:02.23

Peak level 74.7 %
Track quality 100.0 %
Test CRC 45418A44
Copy CRC 45418A44
Track not present in AccurateRip database
Copy OK

Track 6

Filename D:\Jazz\Mel Lewis and the Jazz Orchestra - Live at The Village Vanguard (1980) [FLAC]\06 - The Fan Club.wav

Pre-gap length 0:00:03.03

Peak level 81.1 %
Track quality 100.0 %
Test CRC 18664700
Copy CRC 18664700
Track not present in AccurateRip database
Copy OK

None of the tracks are present in the AccurateRip database

No errors occurred

End of status report

related torrents

Torrent name

health leech seeds Size
 

comments (0)

Main Menu