Horror

Masters Of Horror John Carpenter's Cigarette Burns (2005) XviD DM37

  • Download 5x Faster
  • Download torrent
  • Direct Download
  • Rate this torrent +  |  -

Torrent info

Name:Masters Of Horror John Carpenter's Cigarette Burns (2005) XviD DM37

Total Size: 330.52 MB

Magnet: Magnet Link

Seeds: 16

Leechers: 12

Stream: Watch Online @ Movie4u

Last Updated: 2010-12-16 10:45:13 (Update Now)

Torrent added: 2009-09-22 14:52:09



VPN For Torrents

Torrent Files List


cigarette burns dvd cover.jpg (Size: 330.52 MB) (Files: 4)

 cigarette burns dvd cover.jpg

46.14 KB

 MastersOfHorror_John Carpenter's Cigarette Burns.sub

7.05 MB

 MastersOfHorror_John Carpenter's Cigarette Burns.idx

73.54 KB

 MastersOfHorror_John Carpenter's Cigarette Burns.avi

323.35 MB
 

Announce URL: http://tracker.openbittorrent.com/announce

Torrent description

Movie info: http://www.imdb.com/title/tt0643109/

A Really terrific horrifying episode in the Masters Of Horror-series.

I have all M.O.H. dvd's and this is the most scary of them all. Highly

recommended for all fans of horror.

JOHN CARPENTER'S CIGARETTE BURNS 2005

59 MINUTES

XVID - Good quality. The original Interlaced source was not perfect. This

looks just about the same - good but nothing outstanding.

AUDIO: ENGLISH mp3 128kbps vbr Audio Boost = very good quality.

SUBTITLES....... YES but only on PC. FIN SWE NORSK DANSK
----------------------------------------------------------------------------
LOG:
Format : AVI
Format/Info : Audio Video Interleave
File size : 323 MiB
Duration : 59mn 1s
Overall bit rate : 766 Kbps
Writing application : VirtualDubMod 1.5.4.1 (build 2178/release)
Writing library : VirtualDubMod build 2178/release

Video
ID : 0
Format : MPEG-4 Visual
Format profile : [email protected]
Format settings, BVOP : No
Format settings, QPel : No
Format settings, GMC : No warppoints
Format settings, Matrix : Default (H.263)
Codec ID : XVID
Codec ID/Hint : XviD
Duration : 59mn 1s
Bit rate : 640 Kbps
Width : 608 pixels
Height : 352 pixels
Display aspect ratio : 16:9
Frame rate : 25.000 fps
Resolution : 24 bits
Colorimetry : 4:2:0
Scan type : Progressive
Bits/(Pixel*Frame) : 0.120
Stream size : 270 MiB (84%)
Writing library : XviD 1.2.1 (UTC 2008-12-04)

Audio
ID : 1
Format : MPEG Audio
Format version : Version 1
Format profile : Layer 3
Codec ID : 55
Codec ID/Hint : MP3
Duration : 59mn 1s
Bit rate mode : Variable
Bit rate : 113 Kbps
Nominal bit rate : 128 Kbps
Channel(s) : 2 channels
Sampling rate : 48.0 KHz
Resolution : 16 bits
Stream size : 47.7 MiB (15%)
Alignment : Aligned on interleaves
Interleave, duration : 24 ms (0.60 video frame)
Interleave, preload duration : 543 ms
Writing library : LAME3.98r

related torrents

Torrent name

health leech seeds Size
 


comments (0)

Main Menu