Survivor

Survivor Philippines Palau 27 tvrip (TAGALOG) [tukmol101]

  • Download 5x Faster
  • Download torrent
  • Direct Download
  • Rate this torrent +  |  -
Survivor Philippines Palau 27 tvrip (TAGALOG) [tukmol101]

Free and Direct Download with Usenet.nl 300GB+ free


Torrent info

Name:Survivor Philippines Palau 27 tvrip (TAGALOG) [tukmol101]

Total Size: 189.90 MB

Magnet: Magnet Link

Seeds: 0

Leechers: 1

Stream: Watch Online @ Movie4u

Last Updated: 2016-11-09 03:02:31 (Update Now)

Torrent added: 2009-09-22 12:54:04





Torrent Files List


tracked_by_h33t_com.txt (Size: 189.90 MB) (Files: 3)

 tracked_by_h33t_com.txt

0.02 KB

 Survivor Philippines Palau 27 sample.avi

5.70 MB

 Survivor Philippines Palau 27.avi

184.21 MB
 

tracker

leech seeds
 

Torrent description

EPISODE 27: Echo’s Emergency

DAY 16

Pamper Time

Team Koror went back to their camp to receive their reward – an hour of aruga pampering massage administered
by two female masseurs. Marvin and Echo were given the privilege of getting the massage first since they were
the last two members who remained hanging from the bamboo poles.

“Pagbalik naman sa camp, tapos iyong dalawang masahista nandun na. Parang sobrang sakit ng katawan ko, pabalik
pa lang feel ko na. Iyong mga katribemates ko, sabi nila, kami na lang dalawa ni Echo mauna. Kami naman talaga
iyong pinakamatagal,” Marvin said.

“Nafeel ko na, grabe iyong dinanas ko after 16 days. But then it’s really for me, habang hinahagod niya ang
sasakit talaga na masarap talaga sa pakiramdam. Sabi ko ‘tuloy mo lang!’ ‘tuloy mo lang!’” Echo recalled.

Suzuki and Amanda were next and enjoyed every minute of the massage. Amanda even relished the scent of the
towels. Jef and Shaun were last to be pampered.

“Kasi buhay ko na iyong masahe sa Manila e. Never pang napatunog iyong buto ko pero noong minasahe ako lahat
ng buto ko tumunog, parang wow sobrang sarap. Sobrang kakaiba iyong masahe nila. As in signature massage yata
ng Palau iyon. Hahanap-hanapin ko ito . Alam ko pag-uwi ko ng Maynila, ito na ang standard ko ng masahe,”
Jef said.

At Isla Purgatoryo, Justine also benefited from the reward won by her previous tribe.

Masseur : “Dahil nanalo ang iyong tribong Koror, bibigyan kita ng massage reward.”
Justine : “Ay wow! Massage talaga? As in ima-massage mo ako? Nakakahiya ang dumi-dumi ko. Taray,
may spa dito sa island?”

Justine showed gratitude to the masseur and said, “First time ko ‘to promise. Ikaw ang unang nakapagmasahe
sa akin. Ganito pala iyong feeling.”

At the Airai Camp, Mika was also able to refresh herself even after failing to experience the reward.
She used the soap and shampoo she got from the “truth and consequence” game they did a few days ago.

“”Iyung feeling na nakapag-shampoo, sobrang sarap talaga na iyong alam mo, like wala na ako masyadong buhangin
sa buhok. Wala na akong masyadong kili-kili power ganun,” Mika said.
General
Complete name : Survivor Philippines Palau 27.avi
Format : AVI
Format/Info : Audio Video Interleave
File size : 184 MiB
Duration : 20mn 11s
Overall bit rate : 1 275 Kbps
Writing application : VirtualDubMod 1.5.4.1 (build 2178/release)
Writing library : VirtualDubMod build 2178/release

Video
ID : 0
Format : MPEG-4 Visual
Format profile : [email protected]
Format settings, BVOP : Yes
Format settings, QPel : No
Format settings, GMC : No warppoints
Format settings, Matrix : Default (H.263)
Muxing mode : Packed bitstream
Codec ID : XVID
Codec ID/Hint : XviD
Duration : 20mn 11s
Bit rate : 1 156 Kbps
Width : 592 pixels
Height : 448 pixels
Display aspect ratio : 4:3
Frame rate : 29.970 fps
Resolution : 24 bits
Colorimetry : 4:2:0
Scan type : Progressive
Bits/(Pixel*Frame) : 0.145
Stream size : 167 MiB (91%)
Writing library : XviD 1.2.1 (UTC 2008-12-04)

Audio
ID : 1
Format : MPEG Audio
Format version : Version 1
Format profile : Layer 3
Codec ID : 55
Codec ID/Hint : MP3
Duration : 20mn 11s
Bit rate mode : Variable
Bit rate : 105 Kbps
Nominal bit rate : 128 Kbps
Channel(s) : 2 channels
Sampling rate : 48.0 KHz
Resolution : 16 bits
Stream size : 15.1 MiB (8%)
Alignment : Aligned on interleaves
Interleave, duration : 24 ms (0.72 video frame)
Interleave, preload duration : 509 ms
Writing library : LAME3.98r
Encoding settings : -m j -V 4 -q 2 -lowpass 17 --abr 128

related torrents

Torrent name

health leech seeds Size
 

comments (0)

Main Menu