Action

The Mummy [1999] 1280x544 HD Mp4 H264 AAC 5 1 ch 3Li

  • Download 5x Faster
  • Download torrent
  • Direct Download
  • Rate this torrent +  |  -
The Mummy [1999] 1280x544 HD Mp4 H264 AAC 5 1 ch 3Li

Anonymous and Direct Download 300GB+ free


Torrent info

Name:The Mummy [1999] 1280x544 HD Mp4 H264 AAC 5 1 ch 3Li

Total Size: 1.44 GB

Magnet: Magnet Link

Seeds: 0

Leechers: 0

Stream: Watch Online @ Movie4u

Last Updated: 2016-08-09 08:04:24 (Update Now)

Torrent added: 2009-09-22 12:30:01




Torrent Files List


snapshot20090921140704.jpg (Size: 1.44 GB) (Files: 24)

 snapshot20090921140704.jpg

53.16 KB

 snapshot20090921140252.jpg

39.69 KB

 snapshot20090921140720.jpg

54.86 KB

 snapshot20090921101944.jpg

71.95 KB

 snapshot20090921140844.jpg

57.21 KB

 snapshot20090921140746.jpg

72.90 KB

 snapshot20090921135809.jpg

76.15 KB

 snapshot20090921141120.jpg

77.02 KB

 snapshot20090921135506.jpg

78.92 KB

 snapshot20090921135243.jpg

79.81 KB

 snapshot20090921135827.jpg

82.45 KB

 snapshot20090921105454.jpg

90.33 KB

 snapshot20090921140351.jpg

92.86 KB

 snapshot20090921140038.jpg

91.80 KB

 snapshot20090921135439.jpg

98.64 KB

 snapshot20090921135258.jpg

94.55 KB

 snapshot20090921135616.jpg

135.37 KB

 snapshot20090921140527.jpg

102.63 KB

 The Mummy.mp4

1.44 GB

 snapshot20090921135642.jpg

163.62 KB

 Subtitle

  Read Me if U Want.txt

0.94 KB

  tracked_by_h33t_com.txt

0.02 KB

  The Mummy.english.srt

83.17 KB

  3Li info movie.txt

4.90 KB
 

tracker

leech seeds
 

Torrent description

General
Complete name : The Mummy.mp4
Format : MPEG-4
Format profile : Base Media
Codec ID : isom
File size : 1.44 GiB
Duration : 2h 4mn
Overall bit rate : 1 650 Kbps
Encoded date : UTC 2009-09-20 07:56:39
Tagged date : UTC 2009-09-20 07:56:39

Video
ID : 1
Format : AVC
Format/Info : Advanced Video Codec
Format profile : [email protected]
Format settings, CABAC : Yes
Format settings, ReFrames : 3 frames
Codec ID : avc1
Codec ID/Info : Advanced Video Coding
Duration : 2h 4mn
Bit rate mode : Variable
Bit rate : 1 456 Kbps
Maximum bit rate : 4 107 Kbps
Width : 1 280 pixels
Height : 544 pixels
Display aspect ratio : 2.35:1
Frame rate mode : Constant
Frame rate : 23.976 fps
Resolution : 24 bits
Colorimetry : 4:2:0
Scan type : Progressive
Bits/(Pixel*Frame) : 0.087
Stream size : 1.27 GiB (88%)
Title : The Mummy By 3Li
Writing library : x264 core 68

Audio
ID : 2
Format : AAC
Format/Info : Advanced Audio Codec
Format version : Version 4
Format profile : LC
Format settings, SBR : No
Codec ID : 40
Duration : 2h 4mn
Bit rate mode : Variable
Bit rate : 192 Kbps
Maximum bit rate : 270 Kbps
Channel(s) : 6 channels
Channel positions : Front: L C R, Rear: L R, LFE
Sampling rate : 48.0 KHz
Resolution : 16 bits
Stream size : 170 MiB (12%)
Title : The Mummy
Language : English
Encoded date : UTC 2009-09-20 07:57:32
Tagged date : UTC 2009-09-20 07:57:41

related torrents

Torrent name

health leech seeds Size
 


comments (0)

Main Menu