Asian

House of Flying Daggers 2004 BluRayRip 720p 5_1_ch AVCHD h264 AAC eng+ch subs 2h +Sample [RipMinion]

  • Download 5x Faster
  • Download torrent
  • Direct Download
  • Rate this torrent +  |  -

Torrent info

Name:House of Flying Daggers 2004 BluRayRip 720p 5_1_ch AVCHD h264 AAC eng+ch subs 2h +Sample [RipMinion]

Total Size: 1.81 GB

Magnet: Magnet Link

Seeds: 8

Leechers: 3

Stream: Watch Online @ Movie4u

Last Updated: 2016-04-26 14:19:55 (Update Now)

Torrent added: 2009-09-22 00:51:39




Torrent Files List


~ RipMinion ~ Rare Torrents (www.1337x.org user_51839).URL (Size: 1.81 GB) (Files: 19)

 ~ RipMinion ~ Rare Torrents (www.1337x.org user_51839).URL

0.08 KB

 ~Rare improved-cut movies (fanedit.org).URL

0.08 KB

 ~ RipMinion ~ Rare Torrents (h33t.com 148823).URL

0.07 KB

 trackers

  tracked_by_OpenBitTorrent.com.txt

0.03 KB

  tracked_by_PublicBT.com.txt

0.03 KB

  tracked_by_h33t_com.txt

0.02 KB

  tracked_by_hexagon.cc.txt

0.02 KB

  tracked_by_Bittorrent.am.txt

0.03 KB

  tracked_by_Demonoid.com.txt

0.05 KB

  tracked_by_1337x.org.txt

0.02 KB

 House of Flying Daggers 2004 BluRayRip - text info.txt

5.58 KB

 House of Flying Daggers 2004 BluRayRip - SAMPLE.mp4

58.09 MB

 House of Flying Daggers 2004 BluRayRip - text info.nfo

5.58 KB

 House of Flying Daggers 2004 [Shi mian mai fu] BluRayRip 720p 5_1_ch AVCHD h264 AAC subs 2hrs.srt

39.16 KB

 House of Flying Daggers 2004 [Shi mian mai fu] BluRayRip 720p 5_1_ch AVCHD h264 AAC subs 2hrs.mp4

1.75 GB

 House of Flying Daggers 2004 [Shi mian mai fu] (imdb.org tt0385004).URL

0.06 KB

 House of Flying Daggers 2004 (disc).jpg

229.81 KB

 House of Flying Daggers 2004 (poster).jpg

61.95 KB

 House of Flying Daggers 2004 (cover).jpg

486.57 KB
 

tracker

leech seeds
 

Torrent description

.
House of Flying Daggers 2004 BluRayRip 720p 5.1ch AVCHD h264 AAC subs 2hrs .mp4
(Shi mian mai fu)

I sought a reasonably-sized 720p AVCHD Compliant (BluRay/PS3/XBOX-ready) torrent of 'House of Flying Daggers' movie, but no luck. So, I created one, for our media center and to share.

Details, Ratings, Reviews : http://www.imdb.com/title/tt0385004/
Picture of Cover : House of Flying Daggers 2004 BluRayRip 720p 5_1_ch AVCHD h264 AAC eng+ch subs 2h +Sample [RipMinion] preview 0 *
Picture of Disc : House of Flying Daggers 2004 BluRayRip 720p 5_1_ch AVCHD h264 AAC eng+ch subs 2h +Sample [RipMinion] preview 1 *
~ RipMinion ~ Rare Torrents : http://h33t.com/userdetails.php?id=148823
~ RipMinion ~ Rare Torrents : http://1337x.org/user_51839
Azureus/Vuze Magnet Link : magnet:?xt=urn:btih:QGXYL7KSOXG4NQMBQD5PEJSTTOLIU6EP
*note: cover art pictures may not necessarily be precisely indicative.


Encoding 'inspired by secretmyth & newartriot' for an Optimal blend of Compression, Quality, and AVCHD Compliancy (BluRay/PS3/XBOX-ready).


General
Complete name : House of Flying Daggers 2004 BluRayRip 720p 5.1ch AVCHD h264 AAC subs 2hrs .mp4
Format : MPEG-4
Format profile : Base Media
Codec ID : isom
File size : 1.75 GiB
Duration : 1h 59m
Overall bit rate : 2 105 Kbps

Video
AVCHD Compliant : Yes, BluRay/PS3/XBOX ready; no re-encode!
Format : AVC (h264)
Format/Info : Advanced Video Codec
Format profile : [email protected]
Format settings, CABAC : Yes
Format settings, ReFrames : 3 frames
Codec ID : avc1
Codec ID/Info : Advanced Video Coding
Bit rate mode : Variable
Bit rate : 1 704 Kbps (-crf 26)
Maximum bit rate : 8 410 Kbps
Width : 1 280 pixels
Height : 720 pixels (true 720p)
Display aspect ratio : 16/9
Frame rate mode : Constant
Frame rate : 23.976 fps
Standard : NTSC
Resolution : 24 bits
Colorimetry : 4:2:0
Scan type : Progressive
Bits/(Pixel*Frame) : 0.077
Stream size : 1.42 GiB (81%)
Writing library : x264 core 75 r1259M dd026f2
Encoding settings : cabac=1 / ref=3 / deblock=1:-1:0 / analyse=0x3:0x133 / me=umh / subme=9 / psy=1 / psy_rd=1.0:0.2 / mixed_ref=1 / me_range=64 / chroma_me=1 / trellis=2 / 8x8dct=1 / cqm=0 / deadzone=21,11 / chroma_qp_offset=-3 / threads=6 / nr=0 / decimate=1 / mbaff=0 / bframes=3 / b_pyramid=0 / b_adapt=2 / b_bias=0 / direct=3 / wpredb=1 / keyint=240 / keyint_min=24 / scenecut=40 / rc_lookahead=40 / rc=crf / mbtree=1 / crf=26.0 / qcomp=0.60 / qpmin=10 / qpmax=51 / qpstep=4 / vbv_maxrate=13000 / vbv_bufsize=13000 / ip_ratio=1.40 / aq=1:1.00

Two Audio Tracks : #1: Chinese + #2: English dub
Format : AAC, Nero AAC Encoder v1.3.3.0
Format/Info : Advanced Audio Codec
Format version : Version 4
Format profile : LC (AAC-HE{v1} extension)
Format settings, SBR : Yes
Format settings, PS : No
Codec ID : 40
Bit rate mode : Variable
Bit rate : 199 Kbps (-he -q 0.25 = ~transparent)
Maximum bit rate : 233 Kbps
Channel(s) : 6 channels (5.1 Surround Sound)
Channel positions : Front: L C R, Rear: L R, LFE
Sampling rate : 48.0 KHz
Resolution : 16 bits
Stream size : 169 MiB (9%) + 169 MiB (9%)

Subtitles : English
Format : Timed text
Codec ID : tx3g
Bit rate : 22 bps (vbr)
Stream size : 19.5 KiB (0%)
Language : English


Encode process details / FAQ : http://ripminion.pastebay.com/
Subtitle Search Engine 1 : http://www.opensubtitles.org/
Subtitle Search Engine 2 : http://subscene.com/filmsearch.aspx
Subtitle Search Engine 3 : http://www.subtitlesource.org/
More rare improved-cut movies : http://fanedit.org/ then http://fanedit.info/
~ RipMinion ~ Rare Torrents : http://h33t.com/userdetails.php?id=148823
~ RipMinion ~ Rare Torrents : http://1337x.org/user_51839


Playback issues? Here's the easy fix: http://www.videolan.org/vlc/

For fast & easy Convert-to-AVCHD, Burn, and Play on BluRay/PS3/XBOX from a variety of disc types (DVD-R, DVD+R_DL, BD-R, BD-RE, etc.), I recommend multiAVCHD freeware {link follows}. It can auto-generate a slick customizable 'iTunes-style' slide menu for multiple movies and burn all to a single disc! Or, if desired, it can span across several discs. 100% AVCHD Compliant Video, such as this, is quickly made ready (Non-compliant video is automatically re-encoded thus reducing quality, wasting time, and bloating file size):

http://www.videohelp.com/tools/multiAVCHD
http://ImgBurn.com/


For fast & easy Convert-to-DVD, Burn, and Play on any DVD Player from DVD-R or DVD+R_DL media, I recommend 'ConvertXtoDVD' software; either buy or search for the Torrent.


Please feel free to post constructive feedback, questions, comments, etc.

I really appreciate you helping seed at any capacity you can spare.

Enjoy the show,
~ RipMinion ~

.

related torrents

Torrent name

health leech seeds Size
 


comments (0)

Main Menu