Family

[MT]RamJi Londonwaley ~2005~ 400MB DvD Rip =[AzE]= @

  • Download 5x Faster
  • Download torrent
  • Direct Download
  • Rate this torrent +  |  -
[MT]RamJi Londonwaley ~2005~ 400MB DvD Rip =[AzE]= @

Free and Direct Download with Usenet 300GB+ free


Torrent info

Name:[MT]RamJi Londonwaley ~2005~ 400MB DvD Rip =[AzE]= @

Total Size: 395.68 MB

Magnet: Magnet Link

Seeds: 0

Leechers: 0

Stream: Watch Online @ Movie4u

Last Updated: 2015-12-09 09:05:40 (Update Now)

Torrent added: 2009-09-22 00:49:35




Torrent Files List


RipInfo.txt.txt (Size: 395.68 MB) (Files: 2)

 RipInfo.txt.txt

1.87 KB

 RamJi Londonwaley ~2005~ 400MB.DvD.Rip.-=[AzE]=-.mkv

395.68 MB
 

tracker

leech seeds
 

Torrent description

RipInfo:
Format : Matroska
File size : 396 MiB
Duration : 2h 41mn
Overall bit rate : 343 Kbps
Encoded date : UTC 2009-09-21 17:24:31

Video
ID : 1
Format : AVC
Format/Info : Advanced Video Codec
Format profile : [email protected]
Format settings, CABAC : Yes
Format settings, ReFrames : 4 frames
Muxing mode : Container [email protected]
Codec ID : V_MPEG4/ISO/AVC
Duration : 2h 41mn
Bit rate : 256 Kbps
Nominal bit rate : 261 Kbps
Width : 608 pixels
Height : 272 pixels
Display aspect ratio : 2.25:1
Frame rate : 29.970 fps
Resolution : 24 bits
Colorimetry : 4:2:0
Scan type : Progressive
Bits/(Pixel*Frame) : 0.052
Stream size : 295 MiB (75%)
Writing library : x264 core 68 r1183M f21daff
Language : Hindi

Audio
ID : 2
Format : MPEG Audio
Format version : Version 1
Format profile : Layer 3
Codec ID : A_MPEG/L3
Codec ID/Hint : MP3
Duration : 2h 41mn
Bit rate mode : Constant
Bit rate : 80.0 Kbps
Channel(s) : 2 channels
Sampling rate : 32.0 KHz
Resolution : 16 bits
Stream size : 92.3 MiB (23%)
Writing library : LAME3.98a

Screen Shoots:
[MT]RamJi Londonwaley ~2005~ 400MB DvD Rip  =[AzE]=  @ preview 0

[MT]RamJi Londonwaley ~2005~ 400MB DvD Rip  =[AzE]=  @ preview 1

[MT]RamJi Londonwaley ~2005~ 400MB DvD Rip  =[AzE]=  @ preview 2

[MT]RamJi Londonwaley ~2005~ 400MB DvD Rip  =[AzE]=  @ preview 3

[MT]RamJi Londonwaley ~2005~ 400MB DvD Rip  =[AzE]=  @ preview 4

[MT]RamJi Londonwaley ~2005~ 400MB DvD Rip  =[AzE]=  @ preview 5

[MT]RamJi Londonwaley ~2005~ 400MB DvD Rip  =[AzE]=  @ preview 6

[MT]RamJi Londonwaley ~2005~ 400MB DvD Rip  =[AzE]=  @ preview 7

For more Details and more Fun visit www.mastitorrents.com

related torrents

Torrent name

health leech seeds Size
 

comments (0)

Main Menu