Sports related

United vs City 2009 TVrip avi

  • Download 5x Faster
  • Download torrent
  • Direct Download
  • Rate this torrent +  |  -
United vs City 2009 TVrip avi

Free and Direct Download with Usenet.nl 300GB+ free


Torrent info

Name:United vs City 2009 TVrip avi

Total Size: 699.26 MB

Magnet: Magnet Link

Seeds: 0

Leechers: 0

Stream: Watch Online @ Movie4u

Last Updated: 2015-10-31 14:43:45 (Update Now)

Torrent added: 2009-09-22 00:43:59





Torrent Files List


tracked_by_h33t_com.txt (Size: 699.26 MB) (Files: 10)

 tracked_by_h33t_com.txt

0.02 KB

 Hightopper_eagle.jpg

5.53 KB

 Filmfix.se.txt

4.58 KB

 FFLogo_theatre.jpg

13.37 KB

 Giggs.com.jpg

15.05 KB

 Top.jpg

14.45 KB

 HightopperMovie.jpg

16.07 KB

 united480_1027501l.jpg

31.69 KB

 filmfix_iwantyou.jpg

70.96 KB

 United vs City 2009 TVrip.avi

699.09 MB
 

tracker

leech seeds
 

Torrent description

It was arranged for the festival from the beginning.
And what a party it was.
Wayne Rooney opened the målkavalkaden after not even two minutes when he gave Manchester United a dream start.
After a painting by Ben Foster in the United goal chirped City and the result stood at halftime.
In the second half Darren Fletcher took the lead again for United - but Craig Bellamy equalized for the City to 2-2.
Tried again

Fletcher then tried again with 3-2 in the 80th minute but Bellamy said even then 3-3 in the 90th minute.
- What is happening? thinking expert commentator Jens Fjellström in Canal Plus.
It was not end there.
Derby would be even crazier after substitute, Michael Owen, who took Dimitar Berbatov place in 78: a minute, went 4-3 - in the 96th minute.
- So beautiful, so cold, and - given that United were better in the second - it was also fair, "says Fjellström.

Format : AVI
Format/Info : Audio Video Interleave
File size : 699 MiB
Duration : 1h 40mn
Overall bit rate : 974 Kbps
Writing application : VirtualDubMod 1.5.10.2 (build 2540/release)
Writing library : VirtualDubMod build 2540/release

Video
ID : 0
Format : MPEG-4 Visual
Format profile : [email protected]
Format settings, BVOP : Yes
Format settings, QPel : No
Format settings, GMC : No warppoints
Format settings, Matrix : Default (H.263)
Muxing mode : Packed bitstream
Codec ID : XVID
Codec ID/Hint : XviD
Duration : 1h 40mn
Bit rate : 848 Kbps
Width : 640 pixels
Height : 352 pixels
Display aspect ratio : 16:9
Frame rate : 25.000 fps
Resolution : 24 bits
Colorimetry : 4:2:0
Scan type : Progressive
Bits/(Pixel*Frame) : 0.150
Stream size : 608 MiB (87%)
Writing library : XviD 1.2.1 (UTC 2008-12-04)

Audio
ID : 1
Format : MPEG Audio
Format version : Version 1
Format profile : Layer 3
Codec ID : 55
Codec ID/Hint : MP3
Duration : 1h 40mn
Bit rate mode : Variable
Bit rate : 114 Kbps
Minimum bit rate : 32.0 Kbps
Channel(s) : 2 channels
Sampling rate : 48.0 KHz
Resolution : 16 bits
Stream size : 81.5 MiB (12%)
Alignment : Aligned on interleaves
Interleave, duration : 24 ms (0.60 video frame)
Interleave, preload duration : 497 ms
Writing library : LAME3.97b

related torrents

Torrent name

health leech seeds Size
 

comments (0)

Main Menu