Comedy

City Lights (1931) DVDRip BigDadE

  • Download 5x Faster
  • Download torrent
  • Direct Download
  • Rate this torrent +  |  -
City Lights (1931) DVDRip BigDadE

Free and Direct Download with Usenet 300GB+ free


Torrent info

Name:City Lights (1931) DVDRip BigDadE

Total Size: 757.36 MB

Magnet: Magnet Link

Seeds: 0

Leechers: 1

Stream: Watch Online @ Movie4u

Last Updated: 2016-03-29 21:17:57 (Update Now)

Torrent added: 2009-09-22 00:38:24




Torrent Files List


tracked_by_h33t_com.txt (Size: 757.36 MB) (Files: 7)

 tracked_by_h33t_com.txt

0.02 KB

 big_dad_E.txt

2.94 KB

 Torrent downloaded from Demonoid.com.txt

0.05 KB

 big_dad_e.jpg

17.05 KB

 City Lights (1931) DVDRip [h33t] [big_dad_e].txt

4.27 KB

 City Lights (1931) DVDRip [h33t] [big_dad_e].jpeg

37.79 KB

 City Lights (1931) DVDRip [h33t] [big_dad_e].mp4

757.30 MB
 

tracker

leech seeds
 

Torrent description

Director: Charlie Chaplin, (Silent with a musical score and English subtitles).

A tramp falls in love with a beautiful blind girl. Her family is in financial trouble. The tramp's on-and-off friendship with a wealthy man allows him to be the girl's benefactor and suitor. Written by John J. Magee [email protected]}

Charmingly simple story of The Little Tramp who meets a lovely blind girl selling flowers on the sidewalk who mistakes him for a wealthy duke. When he learns that an operation may restore her sight, he sets off to earn the money she needs to have the surgery. In a series of comedy adventures that only Chaplin could pull off, he eventually succeeds, even though his efforts land him in jail. While he is there, the girl has the operation and afterwards yearns to meet her benefactor. The tear-inducing closing scene, in which she discovers that he is not a wealthy duke but only The Little Tramp, is one of the highest moments in movies. Written by alfiehitchie

File Confirmation:

Format : MPEG-4
Format profile : Base Media
Codec ID : isom
File size : 757 MiB
Duration : 1h 22mn
Overall bit rate : 1 280 Kbps
Movie name : CITYLIGHT FILM_Title01
Encoded date : UTC 2009-07-29 22:46:36
Tagged date : UTC 2009-07-29 22:46:36
Comment : QuickTime 6.0 or greater

Video
ID : 1
Format : MPEG-4 Visual
Format profile : [email protected]
Format settings, BVOP : No
Format settings, QPel : No
Format settings, GMC : No warppoints
Format settings, Matrix : Default (H.263)
Codec ID : 20
Duration : 1h 22mn
Bit rate mode : Constant
Bit rate : 1 164 Kbps
Nominal bit rate : 768 Kbps
Width : 320 pixels
Height : 240 pixels
Display aspect ratio : 4/3
Frame rate mode : Constant
Frame rate : 29.970 fps
Resolution : 24 bits
Colorimetry : 4:2:0
Scan type : Progressive
Bits/(Pixel*Frame) : 0.506
Stream size : 688 MiB (91%)
Writing library : XviD 1.1.0 (UTC 2005-11-22)
Encoded date : UTC 2009-07-29 22:46:36
Tagged date : UTC 2009-07-29 22:46:36

Audio
ID : 2
Format : AAC
Format/Info : Advanced Audio Codec
Format version : Version 4
Format profile : LC
Format settings, SBR : No
Codec ID : 40
Duration : 1h 22mn
Bit rate mode : Constant
Bit rate : 112 Kbps
Channel(s) : 2 channels
Channel positions : L R
Sampling rate : 48.0 KHz
Resolution : 16 bits
Stream size : 66.2 MiB (9%)
Encoded date : UTC 2009-07-29 22:46:36
Tagged date : UTC 2009-07-29 22:46:36

File Scan, (Malware):
Malwarebytes' Anti-Malware 1.39
Database version: 2528
Windows 5.1.2600 Service Pack 3

7/30/2009 9:04:22 PM
mbam-log-2009-07-30 (21-04-22).txt

Scan type: Quick Scan
Objects scanned: 1
Time elapsed: 6 second(s)

Memory Processes Infected: 0
Memory Modules Infected: 0
Registry Keys Infected: 0
Registry Values Infected: 0
Registry Data Items Infected: 0
Folders Infected: 0
Files Infected: 0

Memory Processes Infected:
(No malicious items detected)

Memory Modules Infected:
(No malicious items detected)

Registry Keys Infected:
(No malicious items detected)

Registry Values Infected:
(No malicious items detected)

Registry Data Items Infected:
(No malicious items detected)

Folders Infected:
(No malicious items detected)

Files Infected:
(No malicious items detected)

Quicktime for iPod

ALWAYS SEED!

related torrents

Torrent name

health leech seeds Size

City Lights (1931)

0 2 757.00 MB 0
 

comments (0)

Main Menu