Drama

Werckmeister harmóniák (2000) DVDRip BigDadE

  • Download 5x Faster
  • Download torrent
  • Direct Download
  • Rate this torrent +  |  -
Werckmeister harmóniák (2000) DVDRip BigDadE

Free and Direct Download with Usenet.nl 300GB+ free


Torrent info

Name:Werckmeister harmóniák (2000) DVDRip BigDadE

Total Size: 699.15 MB

Magnet: Magnet Link

Seeds: 2

Leechers: 0

Stream: Watch Online @ Movie4u

Last Updated: 2011-01-06 10:14:19 (Update Now)

Torrent added: 2009-09-22 00:36:31





Torrent Files List


tracked_by_h33t_com.txt (Size: 699.15 MB) (Files: 7)

 tracked_by_h33t_com.txt

0.02 KB

 Torrent downloaded from Demonoid.com.txt

0.05 KB

 big_dad_E.txt

2.94 KB

 big_dad_e.jpg

17.05 KB

 Werckmeister harmóniák (2000) DVDRip [h33t] [big_dad_e].txt

5.13 KB

 Werckmeister harmóniák (2000).jpg

28.41 KB

 Werckmeister harmóniák (2000) DVDRip [h33t] [big_dad_e].mp4

699.10 MB
 

Announce URL: http://www.h33t.com:3310/announce

Torrent description

Directors: Béla Tarr and Ágnes Hranitzky (co-director)

This story takes place in a small town on the Hungarian Plain. In a provincial town, which is surrounded with nothing else but frost. It is bitterly cold weather - without snow. It is twenty degrees below zero. Even in this bewildered cold hundreds of people are standing around the circus tent, which is put up in the main square, to see - as the outcome of their wait - the chief attraction, the stuffed carcass of a real whale. The people are coming from everywhere. From the neighboring settlings, from different holes of the Plain, even from quite far away parts of the country. They are following this clumsy monster as a dumb, faceless, rag-wearing crowd. This strange state of affairs - the appearance of the foreigners, the extreme frost - disturbs the order of the small town. The human connections are overturning, the ambitious personages of the story feel they can take advantage of this situation, while the people who are condemned anyway to passivity fall into an even deeper uncertainty. The tension growing to the unbearable is brought to explosion by the figure of the Prince, who is pretending facelessness and is lying low behind the whale. Even his mere appearance is enough to break loose the destroying emotions. The apocalypse that sweeps away everything spares nothing. I does not spare the outsiders wrapped up in scientificness, does not spare the teenage enthusiasts, the people who have philistine fears for ease, the family - nothing that the European culture preserved as from of attitude in the last centuries. Written by Anonymous

Language: Hungarian and Slovak with English subtitles.
Color: Black and White

File Confirmation:
General
Complete name : K:\Video\Movies & TV\Werckmeister harmóniák (2000) DVDRip [h33t] [big_dad_e]\Werckmeister harmóniák (2000) DVDRip [h33t] [big_dad_e].mp4
Format : MPEG-4
Format profile : Base Media
Codec ID : isom
File size : 699 MiB
Duration : 2h 19mn
Overall bit rate : 699 Kbps
Movie name : WERCKMEISTER_HARMONIES_Title03
Encoded date : UTC 2009-06-23 01:51:38
Tagged date : UTC 2009-06-23 01:51:38
Comment : QuickTime 6.0 or greater

Video
ID : 1
Format : MPEG-4 Visual
Format profile : [email protected]
Format settings, BVOP : No
Format settings, QPel : No
Format settings, GMC : No warppoints
Format settings, Matrix : Default (H.263)
Codec ID : 20
Duration : 2h 19mn
Bit rate mode : Constant
Bit rate : 582 Kbps
Nominal bit rate : 768 Kbps
Width : 320 pixels
Height : 240 pixels
Display aspect ratio : 4:3
Frame rate mode : Constant
Frame rate : 29.970 fps
Resolution : 24 bits
Colorimetry : 4:2:0
Scan type : Progressive
Bits/(Pixel*Frame) : 0.253
Stream size : 582 MiB (83%)
Writing library : XviD 1.1.0 (UTC 2005-11-22)
Encoded date : UTC 2009-06-23 01:51:38
Tagged date : UTC 2009-06-23 01:51:38

Audio
ID : 2
Format : AAC
Format/Info : Advanced Audio Codec
Format version : Version 4
Format profile : LC
Format settings, SBR : No
Codec ID : 40
Duration : 2h 19mn
Bit rate mode : Constant
Bit rate : 112 Kbps
Channel(s) : 2 channels
Channel positions : L R
Sampling rate : 48.0 KHz
Resolution : 16 bits
Stream size : 112 MiB (16%)
Encoded date : UTC 2009-06-23 01:51:38
Tagged date : UTC 2009-06-23 01:51:38

File Scan:
Malwarebytes' Anti-Malware 1.41
Database version: 2838
Windows 5.1.2600 Service Pack 3

9/21/2009 6:20:45 PM
mbam-log-2009-09-21 (18-20-45).txt

Scan type: Quick Scan
Objects scanned: 1
Time elapsed: 12 second(s)

Memory Processes Infected: 0
Memory Modules Infected: 0
Registry Keys Infected: 0
Registry Values Infected: 0
Registry Data Items Infected: 0
Folders Infected: 0
Files Infected: 0

Memory Processes Infected:
(No malicious items detected)

Memory Modules Infected:
(No malicious items detected)

Registry Keys Infected:
(No malicious items detected)

Registry Values Infected:
(No malicious items detected)

Registry Data Items Infected:
(No malicious items detected)

Folders Infected:
(No malicious items detected)

Files Infected:
(No malicious items detected)

Quicktime for iPod

ALWAYS SEED!

related torrents

Torrent name

health leech seeds Size

Werckmeister Soundtracks

0 0 14.24 MB 0
 

comments (0)

Main Menu