Action

Showtime (2002) DVDRip MP3 ENG

  • Download 5x Faster
  • Download torrent
  • Direct Download
  • Rate this torrent +  |  -
Showtime (2002) DVDRip MP3 ENG

Anonymous and Direct Download 300GB+ free


Torrent info

Name:Showtime (2002) DVDRip MP3 ENG

Total Size: 700.02 MB

Magnet: Magnet Link

Seeds: 0

Leechers: 0

Stream: Watch Online @ Movie4u

Last Updated: 2011-11-06 01:52:23 (Update Now)

Torrent added: 2008-08-27 03:35:35




Torrent Files List


Showtime (2002) - DVDRip - MP3 - ENG.avi (Size: 700.02 MB) (Files: 3)

 Showtime (2002) - DVDRip - MP3 - ENG.avi

700.01 MB

 Tracked_by_Demonoid_com.txt

0.03 KB

 Showtime (2002) - DVDRip - MP3 - ENG.nfo

10.76 KB
 

Announce URL:

Torrent description

IMDB: http://www.imdb.com/title/tt0284490/
User Rating: 5.3/10 (16,595 votes)
Release Date: 3 May 2002 (UK)
Genre: Action | Comedy

Plot:

No-nonsense L.A.P.D. detective Mitch Preston (Robert De Niro) is a man of few words, little patience and
even less style. When a job goes horribly wrong, Mitch receives the usual punishment.....forced
participation in a reality-TV show about cops.
When the show's producer, Chase Rensi (Rene Russo - The Thomas Crown Affair) swoops in and sells the Chief
of Police on the PR benefits involved if Mitch plays ball, there really is no way out.

Even worse, his TV partner is Trey Sellers (Eddie Murphy), a fast-talking rookie police officer who
instead of being a cop, would much rather play at being one on TV. Together, they are poised to become
stars of the biggest hit reality show in television history. For Mitch it's a living hell. For Trey, it's
a dream come true.

It's Showtime!
De Niro and Murphy team up for thrills, spills and a lot of laughs in this spoof cop caper with a twist.

Cast:

Robert De Niro ... Det. Mitch Preston
Rachael Harris ... Teacher (as Rachel Harris)
Eddie Murphy ... Officer Trey Sellars
Zaid Farid ... Police Captain Ben
Mos Def ... Lazy Boy


Screenshots:

Showtime (2002)   DVDRip   MP3   ENG preview 0
Showtime (2002)   DVDRip   MP3   ENG preview 1
Showtime (2002)   DVDRip   MP3   ENG preview 2


General
Complete name : Showtime (2002) - DVDRip - MP3 - ENG.avi
Format : AVI
Format/Info : Audio Video Interleave
File size : 700 MiB
Duration : 1h 31mn
Overal bit rate : 1070 Kbps
IAS1 : English

Video
Format : MPEG-4 Visual
Format profile : Streaming [email protected]
Codec ID : XVID
Duration : 1h 31mn
Bit rate : 935 Kbps
Width : 608 pixels
Height : 256 pixels
Display aspect ratio : 2.35
Frame rate : 25.000 fps
Resolution : 8 bits
Colorimetry : 4:2:0
Scan type : Progressive
Bits/(Pixel*Frame) : 0.240
Stream size : 611 MiB (87%)

Audio
Format : MPEG Audio
Format version : Version 1
Format profile : Layer 3
Codec ID : 55
Codec ID/Hint : MP3
Duration : 1h 31mn
Bit rate mode : Constant
Bit rate : 128 Kbps
Channel(s) : 2 channels
Sampling rate : 48.0 KHz
Resolution : 16 bits
Stream size : 83.8 MiB (12%)
Writing library : LAME3.97
Encoding settings : CBR


Trackers:

http://inferno.demonoid.com:3393/announce
http://www.torrent-downloads.to:5869/announce
http://open.tracker.thepiratebay.org:80/announce
http://tpb.tracker.thepiratebay.org:80/announce
http://vip.tracker.thepiratebay.org/announce


Info Hash: 8C71CF823D00DEF054BF52C517130F3698A79EFB

related torrents

Torrent name

health leech seeds Size

I Spy (2002) DVDRip MP3 ENG

12 65 700.44 MB 0
 


comments (0)

Main Menu